  0
SECTION
  2
HEADER
  9
$ACADVER
  1
AC1018
  9
$ACADMAINTVER
 70
     0
  9
$DWGCODEPAGE
  3
ANSI_1252
  9
$INSBASE
 10
0.0
 20
0.0
 30
0.0
  9
$EXTMIN
 10
-71.73344418631848
 20
315.6615493383762
 30
0.0
  9
$EXTMAX
 10
225.2665558136796
 20
525.6615493383763
 30
0.0
  9
$LIMMIN
 10
0.0
 20
0.0
  9
$LIMMAX
 10
12.0
 20
9.0
  9
$ORTHOMODE
 70
     0
  9
$REGENMODE
 70
     1
  9
$FILLMODE
 70
     1
  9
$QTEXTMODE
 70
     0
  9
$MIRRTEXT
 70
     1
  9
$LTSCALE
 40
1.0
  9
$ATTMODE
 70
     1
  9
$TEXTSIZE
 40
0.2
  9
$TRACEWID
 40
0.05
  9
$TEXTSTYLE
  7
Standard
  9
$CLAYER
  8
0
  9
$CELTYPE
  6
ByLayer
  9
$CECOLOR
 62
   256
  9
$CELTSCALE
 40
1.0
  9
$DISPSILH
 70
     0
  9
$DIMSCALE
 40
1.0
  9
$DIMASZ
 40
0.18
  9
$DIMEXO
 40
0.0625
  9
$DIMDLI
 40
0.38
  9
$DIMRND
 40
0.0
  9
$DIMDLE
 40
0.0
  9
$DIMEXE
 40
0.18
  9
$DIMTP
 40
0.0
  9
$DIMTM
 40
0.0
  9
$DIMTXT
 40
0.18
  9
$DIMCEN
 40
0.09
  9
$DIMTSZ
 40
0.0
  9
$DIMTOL
 70
     0
  9
$DIMLIM
 70
     0
  9
$DIMTIH
 70
     1
  9
$DIMTOH
 70
     1
  9
$DIMSE1
 70
     0
  9
$DIMSE2
 70
     0
  9
$DIMTAD
 70
     0
  9
$DIMZIN
 70
     0
  9
$DIMBLK
  1

  9
$DIMASO
 70
     1
  9
$DIMSHO
 70
     1
  9
$DIMPOST
  1

  9
$DIMAPOST
  1

  9
$DIMALT
 70
     0
  9
$DIMALTD
 70
     2
  9
$DIMALTF
 40
25.4
  9
$DIMLFAC
 40
1.0
  9
$DIMTOFL
 70
     0
  9
$DIMTVP
 40
0.0
  9
$DIMTIX
 70
     0
  9
$DIMSOXD
 70
     0
  9
$DIMSAH
 70
     0
  9
$DIMBLK1
  1

  9
$DIMBLK2
  1

  9
$DIMSTYLE
  2
Standard
  9
$DIMCLRD
 70
     0
  9
$DIMCLRE
 70
     0
  9
$DIMCLRT
 70
     0
  9
$DIMTFAC
 40
1.0
  9
$DIMGAP
 40
0.09
  9
$DIMJUST
 70
     0
  9
$DIMSD1
 70
     0
  9
$DIMSD2
 70
     0
  9
$DIMTOLJ
 70
     1
  9
$DIMTZIN
 70
     0
  9
$DIMALTZ
 70
     0
  9
$DIMALTTZ
 70
     0
  9
$DIMUPT
 70
     0
  9
$DIMDEC
 70
     4
  9
$DIMTDEC
 70
     4
  9
$DIMALTU
 70
     2
  9
$DIMALTTD
 70
     2
  9
$DIMTXSTY
  7
Standard
  9
$DIMAUNIT
 70
     0
  9
$DIMADEC
 70
     0
  9
$DIMALTRND
 40
0.0
  9
$DIMAZIN
 70
     0
  9
$DIMDSEP
 70
    46
  9
$DIMATFIT
 70
     3
  9
$DIMFRAC
 70
     0
  9
$DIMLDRBLK
  1

  9
$DIMLUNIT
 70
     2
  9
$DIMLWD
 70
    -2
  9
$DIMLWE
 70
    -2
  9
$DIMTMOVE
 70
     0
  9
$LUNITS
 70
     2
  9
$LUPREC
 70
     4
  9
$SKETCHINC
 40
0.1
  9
$FILLETRAD
 40
0.5
  9
$AUNITS
 70
     0
  9
$AUPREC
 70
     0
  9
$MENU
  1
.
  9
$ELEVATION
 40
0.0
  9
$PELEVATION
 40
0.0
  9
$THICKNESS
 40
0.0
  9
$LIMCHECK
 70
     0
  9
$CHAMFERA
 40
0.5
  9
$CHAMFERB
 40
0.5
  9
$CHAMFERC
 40
1.0
  9
$CHAMFERD
 40
0.0
  9
$SKPOLY
 70
     0
  9
$TDCREATE
 40
2458145.674635694
  9
$TDUCREATE
 40
2458145.632969028
  9
$TDUPDATE
 40
2458145.674636227
  9
$TDUUPDATE
 40
2458145.63296956
  9
$TDINDWG
 40
0.0000000116
  9
$TDUSRTIMER
 40
0.0000000116
  9
$USRTIMER
 70
     1
  9
$ANGBASE
 50
0.0
  9
$ANGDIR
 70
     0
  9
$PDMODE
 70
     0
  9
$PDSIZE
 40
0.0
  9
$PLINEWID
 40
0.0
  9
$SPLFRAME
 70
     0
  9
$SPLINETYPE
 70
     6
  9
$SPLINESEGS
 70
     8
  9
$HANDSEED
  5
293
  9
$SURFTAB1
 70
     6
  9
$SURFTAB2
 70
     6
  9
$SURFTYPE
 70
     6
  9
$SURFU
 70
     6
  9
$SURFV
 70
     6
  9
$UCSBASE
  2

  9
$UCSNAME
  2

  9
$UCSORG
 10
0.0
 20
0.0
 30
0.0
  9
$UCSXDIR
 10
1.0
 20
0.0
 30
0.0
  9
$UCSYDIR
 10
0.0
 20
1.0
 30
0.0
  9
$UCSORTHOREF
  2

  9
$UCSORTHOVIEW
 70
     0
  9
$UCSORGTOP
 10
0.0
 20
0.0
 30
0.0
  9
$UCSORGBOTTOM
 10
0.0
 20
0.0
 30
0.0
  9
$UCSORGLEFT
 10
0.0
 20
0.0
 30
0.0
  9
$UCSORGRIGHT
 10
0.0
 20
0.0
 30
0.0
  9
$UCSORGFRONT
 10
0.0
 20
0.0
 30
0.0
  9
$UCSORGBACK
 10
0.0
 20
0.0
 30
0.0
  9
$PUCSBASE
  2

  9
$PUCSNAME
  2

  9
$PUCSORG
 10
0.0
 20
0.0
 30
0.0
  9
$PUCSXDIR
 10
1.0
 20
0.0
 30
0.0
  9
$PUCSYDIR
 10
0.0
 20
1.0
 30
0.0
  9
$PUCSORTHOREF
  2

  9
$PUCSORTHOVIEW
 70
     0
  9
$PUCSORGTOP
 10
0.0
 20
0.0
 30
0.0
  9
$PUCSORGBOTTOM
 10
0.0
 20
0.0
 30
0.0
  9
$PUCSORGLEFT
 10
0.0
 20
0.0
 30
0.0
  9
$PUCSORGRIGHT
 10
0.0
 20
0.0
 30
0.0
  9
$PUCSORGFRONT
 10
0.0
 20
0.0
 30
0.0
  9
$PUCSORGBACK
 10
0.0
 20
0.0
 30
0.0
  9
$USERI1
 70
     0
  9
$USERI2
 70
     0
  9
$USERI3
 70
     0
  9
$USERI4
 70
     0
  9
$USERI5
 70
     0
  9
$USERR1
 40
18.1
  9
$USERR2
 40
0.0
  9
$USERR3
 40
0.0
  9
$USERR4
 40
0.0
  9
$USERR5
 40
0.0
  9
$WORLDVIEW
 70
     1
  9
$SHADEDGE
 70
     3
  9
$SHADEDIF
 70
    70
  9
$TILEMODE
 70
     1
  9
$MAXACTVP
 70
    64
  9
$PINSBASE
 10
0.0
 20
0.0
 30
0.0
  9
$PLIMCHECK
 70
     0
  9
$PEXTMIN
 10
1.00000000000000E+20
 20
1.00000000000000E+20
 30
1.00000000000000E+20
  9
$PEXTMAX
 10
-1.00000000000000E+20
 20
-1.00000000000000E+20
 30
-1.00000000000000E+20
  9
$PLIMMIN
 10
0.0
 20
0.0
  9
$PLIMMAX
 10
12.0
 20
9.0
  9
$UNITMODE
 70
     0
  9
$VISRETAIN
 70
     1
  9
$PLINEGEN
 70
     0
  9
$PSLTSCALE
 70
     1
  9
$TREEDEPTH
 70
  3020
  9
$CMLSTYLE
  2
Standard
  9
$CMLJUST
 70
     0
  9
$CMLSCALE
 40
1.0
  9
$PROXYGRAPHICS
 70
     1
  9
$MEASUREMENT
 70
     1
  9
$CELWEIGHT
370
    -1
  9
$ENDCAPS
280
     0
  9
$JOINSTYLE
280
     0
  9
$LWDISPLAY
290
     0
  9
$INSUNITS
 70
     4
  9
$HYPERLINKBASE
  1

  9
$STYLESHEET
  1

  9
$XEDIT
290
     1
  9
$CEPSNTYPE
380
     0
  9
$PSTYLEMODE
290
     1
  9
$FINGERPRINTGUID
  2
{32123E06-A506-4C6B-BB7F-AA8B9FC0ECFE}
  9
$VERSIONGUID
  2
{FAEB1C32-E019-11D5-929B-00C0DF256EC4}
  9
$EXTNAMES
290
     1
  9
$PSVPSCALE
 40
0.0
  9
$OLESTARTUP
290
     0
  9
$SORTENTS
280
   127
  9
$INDEXCTL
280
     0
  9
$HIDETEXT
280
     1
  9
$XCLIPFRAME
290
     0
  9
$HALOGAP
280
     0
  9
$OBSCOLOR
 70
   257
  9
$OBSLTYPE
280
     0
  9
$INTERSECTIONDISPLAY
280
     0
  9
$INTERSECTIONCOLOR
 70
   257
  9
$DIMASSOC
280
     2
  9
$PROJECTNAME
  1

  0
ENDSEC
  0
SECTION
  2
CLASSES
  0
CLASS
  1
ACDBDICTIONARYWDFLT
  2
AcDbDictionaryWithDefault
  3
ObjectDBX Classes
 90
        0
 91
        4
280
     0
281
     0
  0
CLASS
  1
VISUALSTYLE
  2
AcDbVisualStyle
  3
ObjectDBX Classes
 90
     4095
 91
        4
280
     0
281
     0
  0
CLASS
  1
MATERIAL
  2
AcDbMaterial
  3
ObjectDBX Classes
 90
     1153
 91
        4
280
     0
281
     0
  0
ENDSEC
  0
SECTION
  2
TABLES
  0
TABLE
  2
VPORT
  5
8
330
0
100
AcDbSymbolTable
 70
     1
  0
VPORT
  5
29
330
8
100
AcDbSymbolTableRecord
100
AcDbViewportTableRecord
  2
*Active
 70
     0
 10
0.0
 20
0.0
 11
1.0
 21
1.0
 12
76.76655581368055
 22
420.6615493383762
 13
0.0
 23
0.0
 14
0.5
 24
0.5
 15
0.5
 25
0.5
 16
0.0
 26
0.0
 36
1.0
 17
0.0
 27
0.0
 37
0.0
 40
231.0000000000001
 41
1.60267857142857
 42
50.0
 43
0.0
 44
0.0
 50
0.0
 51
0.0
 71
     0
 72
   100
 73
     1
 74
     3
 75
     0
 76
     0
 77
     0
 78
     0
281
     0
 65
     1
110
0.0
120
0.0
130
0.0
111
1.0
121
0.0
131
0.0
112
0.0
122
1.0
132
0.0
 79
     0
146
0.0
  0
ENDTAB
  0
TABLE
  2
LTYPE
  5
5
330
0
100
AcDbSymbolTable
 70
     8
  0
LTYPE
  5
14
330
5
100
AcDbSymbolTableRecord
100
AcDbLinetypeTableRecord
  2
ByBlock
 70
     0
  3

 72
    65
 73
     0
 40
0.0
  0
LTYPE
  5
15
330
5
100
AcDbSymbolTableRecord
100
AcDbLinetypeTableRecord
  2
ByLayer
 70
     0
  3

 72
    65
 73
     0
 40
0.0
  0
LTYPE
  5
16
330
5
100
AcDbSymbolTableRecord
100
AcDbLinetypeTableRecord
  2
Continuous
 70
     0
  3
Solid line
 72
    65
 73
     0
 40
0.0
  0
LTYPE
  5
3F
330
5
100
AcDbSymbolTableRecord
100
AcDbLinetypeTableRecord
  2
DASHED
 70
     0
  3
Dashed
 72
    65
 73
     2
 40
15.0
 49
7.0
 74
     0
 49
-8.0
 74
     0
  0
LTYPE
  5
40
330
5
100
AcDbSymbolTableRecord
100
AcDbLinetypeTableRecord
  2
DOTTED
 70
     0
  3
Dotted
 72
    65
 73
     2
 40
1.0
 49
0.0
 74
     0
 49
-1.0
 74
     0
  0
LTYPE
  5
41
330
5
100
AcDbSymbolTableRecord
100
AcDbLinetypeTableRecord
  2
DOT_CENTER
 70
     0
  3
Dot_Center
 72
    65
 73
     4
 40
14.0
 49
12.0
 74
     0
 49
-1.0
 74
     0
 49
0.0
 74
     0
 49
-1.0
 74
     0
  0
LTYPE
  5
42
330
5
100
AcDbSymbolTableRecord
100
AcDbLinetypeTableRecord
  2
LONG_DASHED
 70
     0
  3
Long_Dashed
 72
    65
 73
     2
 40
15.0
 49
10.0
 74
     0
 49
-5.0
 74
     0
  0
LTYPE
  5
43
330
5
100
AcDbSymbolTableRecord
100
AcDbLinetypeTableRecord
  2
DASH_CENTER
 70
     0
  3
Dash_Center
 72
    65
 73
     4
 40
14.0
 49
11.0
 74
     0
 49
-1.0
 74
     0
 49
1.0
 74
     0
 49
-1.0
 74
     0
  0
LTYPE
  5
44
330
5
100
AcDbSymbolTableRecord
100
AcDbLinetypeTableRecord
  2
PHANTOM
 70
     0
  3
Phantom
 72
    65
 73
     6
 40
13.0
 49
10.0
 74
     0
 49
-1.0
 74
     0
 49
0.0
 74
     0
 49
-1.0
 74
     0
 49
0.0
 74
     0
 49
-1.0
 74
     0
  0
LTYPE
  5
45
330
5
100
AcDbSymbolTableRecord
100
AcDbLinetypeTableRecord
  2
CENTER_DASH_DASH
 70
     0
  3
Center_Dash_Dash
 72
    65
 73
     6
 40
14.0
 49
9.0
 74
     0
 49
-1.0
 74
     0
 49
1.0
 74
     0
 49
-1.0
 74
     0
 49
1.0
 74
     0
 49
-1.0
 74
     0
  0
ENDTAB
  0
TABLE
  2
LAYER
  5
2
330
0
100
AcDbSymbolTable
 70
     2
  0
LAYER
  5
10
330
2
100
AcDbSymbolTableRecord
100
AcDbLayerTableRecord
  2
0
 70
     0
 62
     7
  6
Continuous
370
    -3
390
F
  0
LAYER
  5
46
330
2
100
AcDbSymbolTableRecord
100
AcDbLayerTableRecord
  2
1
 70
     0
 62
     7
  6
Continuous
370
    -3
390
F
  0
ENDTAB
  0
TABLE
  2
STYLE
  5
3
330
0
100
AcDbSymbolTable
 70
     5
  0
STYLE
  5
11
330
3
100
AcDbSymbolTableRecord
100
AcDbTextStyleTableRecord
  2
Standard
 70
     0
 40
0.0
 41
1.0
 50
0.0
 71
     0
 42
0.2
  3
txt
  4

  0
STYLE
  5
C0
330
3
100
AcDbSymbolTableRecord
100
AcDbTextStyleTableRecord
  2
CONVERTER_11
 70
     0
 40
0.0
 41
0.9
 50
0.0
 71
     0
 42
0.2
  3
txt.shx
  4

  0
STYLE
  5
22E
330
3
100
AcDbSymbolTableRecord
100
AcDbTextStyleTableRecord
  2
CONVERTER_12
 70
     0
 40
0.0
 41
0.81
 50
0.0
 71
     0
 42
0.2
  3
txt.shx
  4

  0
STYLE
  5
244
330
3
100
AcDbSymbolTableRecord
100
AcDbTextStyleTableRecord
  2
CONVERTER_13
 70
     0
 40
0.0
 41
0.72
 50
0.0
 71
     0
 42
0.2
  3
txt.shx
  4

  0
STYLE
  5
247
330
3
100
AcDbSymbolTableRecord
100
AcDbTextStyleTableRecord
  2
CONVERTER_14
 70
     0
 40
0.0
 41
0.855
 50
0.0
 71
     0
 42
0.2
  3
txt.shx
  4

  0
ENDTAB
  0
TABLE
  2
VIEW
  5
6
330
0
100
AcDbSymbolTable
 70
     0
  0
ENDTAB
  0
TABLE
  2
UCS
  5
7
330
0
100
AcDbSymbolTable
 70
     0
  0
ENDTAB
  0
TABLE
  2
APPID
  5
9
330
0
100
AcDbSymbolTable
 70
     1
  0
APPID
  5
12
330
9
100
AcDbSymbolTableRecord
100
AcDbRegAppTableRecord
  2
ACAD
 70
     0
  0
ENDTAB
  0
TABLE
  2
DIMSTYLE
  5
A
330
0
100
AcDbSymbolTable
 70
     4
100
AcDbDimStyleTable
  0
DIMSTYLE
105
27
330
A
100
AcDbSymbolTableRecord
100
AcDbDimStyleTableRecord
  2
Standard
 70
     0
178
     0
340
11
  0
DIMSTYLE
105
C4
102
{ACAD_REACTORS
330
C5
102
}
330
A
100
AcDbSymbolTableRecord
100
AcDbDimStyleTableRecord
  2
ME10_DIM_10
 70
     0
 41
3.5
 42
0.0
 44
1.5
 73
     0
 74
     0
 77
     1
 78
     8
140
3.5
147
1.5
172
     1
173
     1
174
     1
175
     1
176
     2
177
     2
271
     2
178
     3
271
     2
340
C0
  0
DIMSTYLE
105
125
102
{ACAD_REACTORS
330
126
102
}
330
A
100
AcDbSymbolTableRecord
100
AcDbDimStyleTableRecord
  2
ME10_DIM_11
 70
     0
 41
3.5
 42
0.0
 44
1.5
 73
     0
 74
     0
 77
     1
 78
     8
140
3.5
147
1.5
172
     1
173
     1
174
     1
175
     1
176
     2
177
     2
271
     2
178
     3
271
     2
340
C0
  0
DIMSTYLE
105
130
102
{ACAD_REACTORS
330
131
102
}
330
A
100
AcDbSymbolTableRecord
100
AcDbDimStyleTableRecord
  2
ME10_DIM_12
 70
     0
 41
3.5
 42
0.0
 44
1.5
 73
     0
 74
     0
 77
     1
 78
     8
140
3.5
147
1.5
172
     1
173
     1
174
     1
175
     1
176
     2
177
     2
271
     2
178
     3
271
     2
340
C0
  0
ENDTAB
  0
TABLE
  2
BLOCK_RECORD
  5
1
330
0
100
AcDbSymbolTable
 70
    20
  0
BLOCK_RECORD
  5
1F
330
1
100
AcDbSymbolTableRecord
100
AcDbBlockTableRecord
  2
*Model_Space
340
22
  0
BLOCK_RECORD
  5
1B
330
1
100
AcDbSymbolTableRecord
100
AcDbBlockTableRecord
  2
*Paper_Space
340
1E
  0
BLOCK_RECORD
  5
23
330
1
100
AcDbSymbolTableRecord
100
AcDbBlockTableRecord
  2
*Paper_Space0
340
26
  0
BLOCK_RECORD
  5
47
330
1
100
AcDbSymbolTableRecord
100
AcDbBlockTableRecord
  2
D_UK_16_BU-select__1
340
0
102
{BLKREFS
331
4B
102
}
  0
BLOCK_RECORD
  5
4A
330
1
100
AcDbSymbolTableRecord
100
AcDbBlockTableRecord
  2
AllgSicht1
340
0
102
{BLKREFS
331
7D
102
}
  0
BLOCK_RECORD
  5
4E
330
1
100
AcDbSymbolTableRecord
100
AcDbBlockTableRecord
  2
D_UK_16_BU-select__2
340
0
102
{BLKREFS
331
52
102
}
  0
BLOCK_RECORD
  5
51
330
1
100
AcDbSymbolTableRecord
100
AcDbBlockTableRecord
  2
Drfsicht1
340
0
102
{BLKREFS
331
7E
102
}
  0
BLOCK_RECORD
  5
55
330
1
100
AcDbSymbolTableRecord
100
AcDbBlockTableRecord
  2
D_UK_16_BU-select__3
340
0
102
{BLKREFS
331
59
102
}
  0
BLOCK_RECORD
  5
58
330
1
100
AcDbSymbolTableRecord
100
AcDbBlockTableRecord
  2
Rckans1
340
0
102
{BLKREFS
331
7F
102
}
  0
BLOCK_RECORD
  5
5C
330
1
100
AcDbSymbolTableRecord
100
AcDbBlockTableRecord
  2
D_UK_16_BU-select__4
340
0
102
{BLKREFS
331
60
102
}
  0
BLOCK_RECORD
  5
5F
330
1
100
AcDbSymbolTableRecord
100
AcDbBlockTableRecord
  2
SA_Links1
340
0
102
{BLKREFS
331
80
102
}
  0
BLOCK_RECORD
  5
63
330
1
100
AcDbSymbolTableRecord
100
AcDbBlockTableRecord
  2
D_UK_16_BU-select__5
340
0
102
{BLKREFS
331
67
102
}
  0
BLOCK_RECORD
  5
66
330
1
100
AcDbSymbolTableRecord
100
AcDbBlockTableRecord
  2
SA_Rechts1
340
0
102
{BLKREFS
331
81
102
}
  0
BLOCK_RECORD
  5
6A
330
1
100
AcDbSymbolTableRecord
100
AcDbBlockTableRecord
  2
D_UK_16_BU-select__6
340
0
102
{BLKREFS
331
6E
102
}
  0
BLOCK_RECORD
  5
6D
330
1
100
AcDbSymbolTableRecord
100
AcDbBlockTableRecord
  2
Vordans1
340
0
102
{BLKREFS
331
82
102
}
  0
BLOCK_RECORD
  5
71
330
1
100
AcDbSymbolTableRecord
100
AcDbBlockTableRecord
  2
_rahmen
340
0
102
{BLKREFS
331
78
102
}
  0
BLOCK_RECORD
  5
74
330
1
100
AcDbSymbolTableRecord
100
AcDbBlockTableRecord
  2
_punkt
340
0
102
{BLKREFS
331
79
102
}
  0
BLOCK_RECORD
  5
77
330
1
100
AcDbSymbolTableRecord
100
AcDbBlockTableRecord
  2
A4I_CS
340
0
102
{BLKREFS
331
83
102
}
  0
BLOCK_RECORD
  5
7C
330
1
100
AcDbSymbolTableRecord
100
AcDbBlockTableRecord
  2
1
340
0
102
{BLKREFS
331
86
102
}
  0
BLOCK_RECORD
  5
B8
330
1
100
AcDbSymbolTableRecord
100
AcDbBlockTableRecord
  2
*D17
340
0
  0
BLOCK_RECORD
  5
11C
330
1
100
AcDbSymbolTableRecord
100
AcDbBlockTableRecord
  2
*D18
340
0
  0
BLOCK_RECORD
  5
127
330
1
100
AcDbSymbolTableRecord
100
AcDbBlockTableRecord
  2
*D19
340
0
  0
ENDTAB
  0
ENDSEC
  0
SECTION
  2
BLOCKS
  0
BLOCK
  5
20
330
1F
100
AcDbEntity
  8
0
100
AcDbBlockBegin
  2
*Model_Space
 70
     0
 10
0.0
 20
0.0
 30
0.0
  3
*Model_Space
  1

  0
ENDBLK
  5
21
330
1F
100
AcDbEntity
  8
0
100
AcDbBlockEnd
  0
BLOCK
  5
1C
330
1B
100
AcDbEntity
 67
     1
  8
0
100
AcDbBlockBegin
  2
*Paper_Space
 70
     0
 10
0.0
 20
0.0
 30
0.0
  3
*Paper_Space
  1

  0
ENDBLK
  5
1D
330
1B
100
AcDbEntity
 67
     1
  8
0
100
AcDbBlockEnd
  0
BLOCK
  5
24
330
23
100
AcDbEntity
  8
0
100
AcDbBlockBegin
  2
*Paper_Space0
 70
     0
 10
0.0
 20
0.0
 30
0.0
  3
*Paper_Space0
  1

  0
ENDBLK
  5
25
330
23
100
AcDbEntity
  8
0
100
AcDbBlockEnd
  0
BLOCK
  5
48
330
47
100
AcDbEntity
  8
0
100
AcDbBlockBegin
  2
D_UK_16_BU-select__1
 70
     0
 10
169.2219590755886
 20
353.8730984584504
 30
0.0
  3
D_UK_16_BU-select__1
  1

  0
LINE
  5
87
330
47
100
AcDbEntity
  8
0
  6
Continuous
 62
     7
100
AcDbLine
 10
206.7780387364272
 20
358.0733216668049
 30
0.0
 11
206.7780387364272
 21
354.5226175112887
 31
0.0
  0
LINE
  5
88
330
47
100
AcDbEntity
  8
0
  6
Continuous
 62
     7
100
AcDbLine
 10
206.0280387364272
 20
376.3968097644146
 30
0.0
 11
206.7780387364272
 21
377.046328817253
 31
0.0
  0
LINE
  5
89
330
47
100
AcDbEntity
  8
0
  6
Continuous
 62
     7
100
AcDbLine
 10
206.7780387364272
 20
378.4682199259285
 30
0.0
 11
206.7780387364272
 21
377.046328817253
 31
0.0
  0
LINE
  5
8A
330
47
100
AcDbEntity
  8
0
  6
Continuous
 62
     7
100
AcDbLine
 10
206.0280387364272
 20
376.3968097644146
 30
0.0
 11
205.0321095220752
 21
376.4174513357104
 31
0.0
  0
LINE
  5
8B
330
47
100
AcDbEntity
  8
0
  6
Continuous
 62
     7
100
AcDbLine
 10
206.0280387364272
 20
357.4238026139666
 30
0.0
 11
206.0280387364272
 21
353.8730984584504
 31
0.0
  0
LINE
  5
8C
330
47
100
AcDbEntity
  8
0
  6
Continuous
 62
     7
100
AcDbLine
 10
205.3369399848744
 20
376.4111334371688
 30
0.0
 11
203.9634561741278
 21
374.3876763945464
 31
0.0
  0
LINE
  5
8D
330
47
100
AcDbEntity
  8
0
  6
Continuous
 62
     7
100
AcDbLine
 10
206.0280387364272
 20
377.8187008730901
 30
0.0
 11
206.7780387364272
 21
378.4682199259285
 31
0.0
  0
LINE
  5
8E
330
47
100
AcDbEntity
  8
0
  6
Continuous
 62
     7
100
AcDbLine
 10
206.0280387364272
 20
353.8730984584504
 30
0.0
 11
206.7780387364272
 21
354.5226175112887
 31
0.0
  0
LINE
  5
8F
330
47
100
AcDbEntity
  8
0
  6
Continuous
 62
     7
100
AcDbLine
 10
172.036541637888
 20
382.738157341708
 30
0.0
 11
172.0365416378879
 21
368.7085458004001
 31
0.0
  0
LINE
  5
90
330
47
100
AcDbEntity
  8
0
  6
Continuous
 62
     7
100
AcDbLine
 10
170.2178882899407
 20
386.4674513357105
 30
0.0
 11
172.036541637888
 21
382.738157341708
 31
0.0
  0
LINE
  5
91
330
47
100
AcDbEntity
  8
0
  6
Continuous
 62
     7
100
AcDbLine
 10
199.6333291552056
 20
393.5644022528842
 30
0.0
 11
199.6333291552056
 21
387.6754295071501
 31
0.0
  0
LINE
  5
92
330
47
100
AcDbEntity
  8
0
  6
Continuous
 62
     7
100
AcDbLine
 10
198.8833291552056
 20
392.9148832000459
 30
0.0
 11
199.6333291552056
 21
393.5644022528842
 31
0.0
  0
LINE
  5
93
330
47
100
AcDbEntity
  8
0
  6
Continuous
 62
     7
100
AcDbLine
 10
203.2134561741278
 20
373.738157341708
 30
0.0
 11
205.0321095220752
 21
376.4174513357104
 31
0.0
  0
LINE
  5
94
330
47
100
AcDbEntity
  8
0
  6
Continuous
 62
     7
100
AcDbLine
 10
206.0280387364272
 20
377.8187008730901
 30
0.0
 11
206.0280387364272
 21
376.3968097644146
 31
0.0
  0
LINE
  5
95
330
47
100
AcDbEntity
  8
0
  6
Continuous
 62
     7
100
AcDbLine
 10
206.0280387364272
 20
377.8187008730901
 30
0.0
 11
198.8833291552056
 21
387.0259104543118
 31
0.0
  0
LINE
  5
96
330
47
100
AcDbEntity
  8
0
  6
Continuous
 62
     7
100
AcDbLine
 10
198.8833291552056
 20
392.9148832000459
 30
0.0
 11
198.8833291552056
 21
387.0259104543118
 31
0.0
  0
LINE
  5
97
330
47
100
AcDbEntity
  8
0
  6
Continuous
 62
     7
100
AcDbLine
 10
199.6333291552056
 20
387.6754295071501
 30
0.0
 11
198.8833291552056
 21
387.0259104543118
 31
0.0
  0
LINE
  5
98
330
47
100
AcDbEntity
  8
0
  6
Continuous
 62
     7
100
AcDbLine
 10
199.6333291552056
 20
387.6754295071501
 30
0.0
 11
206.7780387364272
 21
378.4682199259285
 31
0.0
  0
LINE
  5
99
330
47
100
AcDbEntity
  8
0
  6
Continuous
 62
     7
100
AcDbLine
 10
203.9634561741278
 20
360.3580648532384
 30
0.0
 11
203.2134561741278
 21
359.7085458004002
 31
0.0
  0
LINE
  5
9A
330
47
100
AcDbEntity
  8
0
  6
Continuous
 62
     7
100
AcDbLine
 10
203.9634561741278
 20
374.3876763945464
 30
0.0
 11
203.9634561741278
 21
360.3580648532384
 31
0.0
  0
LINE
  5
9B
330
47
100
AcDbEntity
  8
0
  6
Continuous
 62
     7
100
AcDbLine
 10
203.2134561741278
 20
359.7085458004002
 30
0.0
 11
203.2134561741278
 21
373.738157341708
 31
0.0
  0
LINE
  5
9C
330
47
100
AcDbEntity
  8
0
  6
Continuous
 62
     7
100
AcDbLine
 10
203.9634561741278
 20
374.3876763945464
 30
0.0
 11
203.2134561741278
 21
373.738157341708
 31
0.0
  0
LINE
  5
9D
330
47
100
AcDbEntity
  8
0
  6
Continuous
 62
     7
100
AcDbLine
 10
203.2134561741278
 20
359.7085458004002
 30
0.0
 11
206.0280387364272
 21
357.4238026139666
 31
0.0
  0
LINE
  5
9E
330
47
100
AcDbEntity
  8
0
  6
Continuous
 62
     7
100
AcDbLine
 10
203.9634561741278
 20
360.3580648532384
 30
0.0
 11
206.7780387364272
 21
358.0733216668049
 31
0.0
  0
LINE
  5
9F
330
47
100
AcDbEntity
  8
0
  6
Continuous
 62
     7
100
AcDbLine
 10
206.0280387364272
 20
357.4238026139666
 30
0.0
 11
206.7780387364272
 21
358.0733216668049
 31
0.0
  0
LINE
  5
A0
330
47
100
AcDbEntity
  8
0
  6
Continuous
 62
     7
100
AcDbLine
 10
176.3666686568102
 20
393.5259104543118
 30
0.0
 11
176.3666686568102
 21
399.4148832000459
 31
0.0
  0
LINE
  5
A1
330
47
100
AcDbEntity
  8
0
  6
Continuous
 62
     7
100
AcDbLine
 10
176.3666686568102
 20
399.4148832000459
 30
0.0
 11
198.8833291552056
 21
392.9148832000459
 31
0.0
  0
LINE
  5
A2
330
47
100
AcDbEntity
  8
0
  6
Continuous
 62
     7
100
AcDbLine
 10
177.1166686568102
 20
400.0644022528842
 30
0.0
 11
199.6333291552056
 21
393.5644022528842
 31
0.0
  0
LINE
  5
A3
330
47
100
AcDbEntity
  8
0
  6
Continuous
 62
     7
100
AcDbLine
 10
169.2219590755886
 20
387.3299513357105
 30
0.0
 11
169.2219590755886
 21
388.4437008730901
 31
0.0
  0
LINE
  5
A4
330
47
100
AcDbEntity
  8
0
  6
Continuous
 62
     7
100
AcDbLine
 10
169.2219590755886
 20
364.4980984584504
 30
0.0
 11
169.2219590755886
 21
368.0488026139666
 31
0.0
  0
LINE
  5
A5
330
47
100
AcDbEntity
  8
0
  6
Continuous
 62
     7
100
AcDbLine
 10
176.3666686568102
 20
399.4148832000459
 30
0.0
 11
177.1166686568102
 21
400.0644022528842
 31
0.0
  0
LINE
  5
A6
330
47
100
AcDbEntity
  8
0
  6
Continuous
 62
     7
100
AcDbLine
 10
176.3666686568102
 20
393.5259104543118
 30
0.0
 11
169.2219590755886
 21
388.4437008730901
 31
0.0
  0
LINE
  5
A7
330
47
100
AcDbEntity
  8
0
  6
Continuous
 62
     7
100
AcDbLine
 10
169.9719590755886
 20
389.0932199259285
 30
0.0
 11
176.3666686568102
 21
393.6419358580962
 31
0.0
  0
LINE
  5
A8
330
47
100
AcDbEntity
  8
0
  6
Continuous
 62
     7
100
AcDbLine
 10
169.2219590755886
 20
368.0488026139666
 30
0.0
 11
169.9719590755886
 21
368.6983216668049
 31
0.0
  0
LINE
  5
A9
330
47
100
AcDbEntity
  8
0
  6
Continuous
 62
     7
100
AcDbLine
 10
169.2219590755886
 20
368.0488026139666
 30
0.0
 11
172.0365416378879
 21
368.7085458004001
 31
0.0
  0
LINE
  5
AA
330
47
100
AcDbEntity
  8
0
  6
Continuous
 62
     7
100
AcDbLine
 10
169.9719590755886
 20
368.6983216668049
 30
0.0
 11
172.036541637888
 21
369.1822635118769
 31
0.0
  0
LINE
  5
AB
330
47
100
AcDbEntity
  8
0
  6
Continuous
 62
     7
100
AcDbLine
 10
170.2178882899407
 20
386.4674513357105
 30
0.0
 11
169.2219590755886
 21
387.3299513357105
 31
0.0
  0
LINE
  5
AC
330
47
100
AcDbEntity
  8
0
  6
Continuous
 62
     7
100
AcDbLine
 10
169.2219590755886
 20
388.4437008730901
 30
0.0
 11
169.9719590755886
 21
389.0932199259285
 31
0.0
  0
LINE
  5
AD
330
47
100
AcDbEntity
  8
0
  6
Continuous
 62
     7
100
AcDbLine
 10
206.0280387364272
 20
353.8730984584504
 30
0.0
 11
169.2219590755886
 21
364.4980984584504
 31
0.0
  0
ENDBLK
  5
49
330
47
100
AcDbEntity
  8
0
100
AcDbBlockEnd
  0
BLOCK
  5
4C
330
4A
100
AcDbEntity
  8
0
100
AcDbBlockBegin
  2
AllgSicht1
 70
     0
 10
188.0000000000011
 20
378.0
 30
0.0
  3
AllgSicht1
  1

  0
INSERT
  5
4B
330
4A
100
AcDbEntity
  8
0
100
AcDbBlockReference
  2
D_UK_16_BU-select__1
 10
169.2219590755886
 20
353.8730984584504
 30
0.0
  0
ENDBLK
  5
4D
330
4A
100
AcDbEntity
  8
0
100
AcDbBlockEnd
  0
BLOCK
  5
4F
330
4E
100
AcDbEntity
  8
0
100
AcDbBlockBegin
  2
D_UK_16_BU-select__2
 70
     0
 10
16.74999873676052
 20
391.2500000000001
 30
0.0
  3
D_UK_16_BU-select__2
  1

  0
LINE
  5
AE
330
4E
100
AcDbEntity
  8
0
  6
Continuous
 62
     7
100
AcDbLine
 10
16.74999873676052
 20
392.7500000000001
 30
0.0
 11
24.99999873676051
 21
392.7500000000001
 31
0.0
  0
LINE
  5
AF
330
4E
100
AcDbEntity
  8
0
  6
Continuous
 62
     7
100
AcDbLine
 10
24.99999873676051
 20
391.2500000000001
 30
0.0
 11
16.74999873676052
 21
391.2500000000002
 31
0.0
  0
LINE
  5
B0
330
4E
100
AcDbEntity
  8
0
  6
Continuous
 62
     7
100
AcDbLine
 10
16.74999873676052
 20
391.2500000000002
 30
0.0
 11
16.74999873676052
 21
392.7500000000001
 31
0.0
  0
LINE
  5
B1
330
4E
100
AcDbEntity
  8
0
  6
Continuous
 62
     7
100
AcDbLine
 10
59.24999873676052
 20
391.2500000000001
 30
0.0
 11
59.24999873676052
 21
392.7500000000002
 31
0.0
  0
LINE
  5
B2
330
4E
100
AcDbEntity
  8
0
  6
Continuous
 62
     7
100
AcDbLine
 10
59.24999873676052
 20
391.2500000000001
 30
0.0
 11
50.99999873676052
 21
391.2500000000001
 31
0.0
  0
LINE
  5
B3
330
4E
100
AcDbEntity
  8
0
  6
Continuous
 62
     7
100
AcDbLine
 10
50.99999873676052
 20
392.7500000000001
 30
0.0
 11
59.24999873676052
 21
392.7500000000002
 31
0.0
  0
LINE
  5
B4
330
4E
100
AcDbEntity
  8
0
  6
Continuous
 62
     7
100
AcDbLine
 10
50.99999873676052
 20
391.2500000000001
 30
0.0
 11
50.99999873676052
 21
392.7500000000001
 31
0.0
  0
LINE
  5
B5
330
4E
100
AcDbEntity
  8
0
  6
Continuous
 62
     7
100
AcDbLine
 10
24.99999873676051
 20
391.2500000000001
 30
0.0
 11
50.99999873676052
 21
391.2500000000001
 31
0.0
  0
LINE
  5
B6
330
4E
100
AcDbEntity
  8
0
  6
Continuous
 62
     7
100
AcDbLine
 10
24.99999873676051
 20
391.2500000000001
 30
0.0
 11
24.99999873676051
 21
392.7500000000001
 31
0.0
  0
LINE
  5
B7
330
4E
100
AcDbEntity
  8
0
  6
Continuous
 62
     7
100
AcDbLine
 10
24.99999873676051
 20
392.7500000000001
 30
0.0
 11
50.99999873676052
 21
392.7500000000001
 31
0.0
  0
ENDBLK
  5
50
330
4E
100
AcDbEntity
  8
0
100
AcDbBlockEnd
  0
BLOCK
  5
53
330
51
100
AcDbEntity
  8
0
100
AcDbBlockBegin
  2
Drfsicht1
 70
     0
 10
37.99999999999501
 20
392.0000000000001
 30
0.0
  3
Drfsicht1
  1

  0
INSERT
  5
52
330
51
100
AcDbEntity
  8
0
100
AcDbBlockReference
  2
D_UK_16_BU-select__2
 10
16.74999873676052
 20
391.2500000000001
 30
0.0
  0
DIMENSION
  5
C5
330
51
100
AcDbEntity
  8
1
100
AcDbDimension
  2
*D17
 10
6.74999873676052
 20
392.7500000000001
 30
0.0
 11
3.32499873676052
 21
399.313629665012
 31
0.0
 70
    32
  1
<>
 71
     5
 42
-1.0
 53
90.0
  3
ME10_DIM_10
100
AcDbAlignedDimension
 13
16.74999873676052
 23
391.2500000000002
 33
0.0
 14
16.74999873676052
 24
392.7500000000001
 34
0.0
 50
90.0
100
AcDbRotatedDimension
  0
ENDBLK
  5
54
330
51
100
AcDbEntity
  8
0
100
AcDbBlockEnd
  0
BLOCK
  5
56
330
55
100
AcDbEntity
  8
0
100
AcDbBlockBegin
  2
D_UK_16_BU-select__3
 70
     0
 10
137.2499974485484
 20
414.7500004274945
 30
0.0
  3
D_UK_16_BU-select__3
  1

  0
LINE
  5
C6
330
55
100
AcDbEntity
  8
0
  6
Continuous
 62
     7
100
AcDbLine
 10
171.4999974485484
 20
450.6500004274945
 30
0.0
 11
171.4999974485484
 21
457.4500004274944
 31
0.0
  0
LINE
  5
C7
330
55
100
AcDbEntity
  8
0
  6
Continuous
 62
     7
100
AcDbLine
 10
145.4999974485484
 20
457.4500004274944
 30
0.0
 11
145.4999974485484
 21
450.6500004274945
 31
0.0
  0
LINE
  5
C8
330
55
100
AcDbEntity
  8
0
  6
Continuous
 62
     7
100
AcDbLine
 10
171.4999974485484
 20
457.4500004274944
 30
0.0
 11
145.4999974485484
 21
457.4500004274944
 31
0.0
  0
LINE
  5
C9
330
55
100
AcDbEntity
  8
0
  6
Continuous
 62
     7
100
AcDbLine
 10
137.2499974485484
 20
440.7581419987902
 30
0.0
 11
138.3999974485485
 21
440.4500004274944
 31
0.0
  0
LINE
  5
CA
330
55
100
AcDbEntity
  8
0
  6
Continuous
 62
     7
100
AcDbLine
 10
178.5999974485484
 20
440.4500004274944
 30
0.0
 11
179.7499974485484
 21
441.1139532370626
 31
0.0
  0
LINE
  5
CB
330
55
100
AcDbEntity
  8
0
  6
Continuous
 62
     7
100
AcDbLine
 10
137.2499974485484
 20
414.7500004274945
 30
0.0
 11
179.7499974485484
 21
414.7500004274945
 31
0.0
  0
LINE
  5
CC
330
55
100
AcDbEntity
  8
0
  6
Continuous
 62
     7
100
AcDbLine
 10
137.2499974485484
 20
418.8500004274945
 30
0.0
 11
137.2499974485484
 21
414.7500004274945
 31
0.0
  0
LINE
  5
CD
330
55
100
AcDbEntity
  8
0
  6
Continuous
 62
     7
100
AcDbLine
 10
140.4999974485484
 20
420.5500004274945
 30
0.0
 11
137.2499974485484
 21
418.8500004274945
 31
0.0
  0
LINE
  5
CE
330
55
100
AcDbEntity
  8
0
  6
Continuous
 62
     7
100
AcDbLine
 10
140.4999974485484
 20
436.7500004274945
 30
0.0
 11
140.4999974485484
 21
420.5500004274945
 31
0.0
  0
LINE
  5
CF
330
55
100
AcDbEntity
  8
0
  6
Continuous
 62
     7
100
AcDbLine
 10
138.3999974485485
 20
440.4500004274944
 30
0.0
 11
140.4999974485484
 21
436.7500004274945
 31
0.0
  0
LINE
  5
D0
330
55
100
AcDbEntity
  8
0
  6
Continuous
 62
     7
100
AcDbLine
 10
179.7499974485485
 20
418.8500004274945
 30
0.0
 11
176.4999974485486
 21
420.5500004274944
 31
0.0
  0
LINE
  5
D1
330
55
100
AcDbEntity
  8
0
  6
Continuous
 62
     7
100
AcDbLine
 10
176.4999974485486
 20
420.5500004274944
 30
0.0
 11
176.4999974485484
 21
436.7500004274945
 31
0.0
  0
LINE
  5
D2
330
55
100
AcDbEntity
  8
0
  6
Continuous
 62
     7
100
AcDbLine
 10
176.4999974485484
 20
436.7500004274945
 30
0.0
 11
178.5999974485484
 21
440.4500004274944
 31
0.0
  0
LINE
  5
D3
330
55
100
AcDbEntity
  8
0
  6
Continuous
 62
     7
100
AcDbLine
 10
179.7499974485484
 20
414.7500004274945
 30
0.0
 11
179.7499974485485
 21
418.8500004274945
 31
0.0
  0
LINE
  5
D4
330
55
100
AcDbEntity
  8
0
  6
Continuous
 62
     7
100
AcDbLine
 10
179.7499974485484
 20
441.1139532370626
 30
0.0
 11
179.7499974485484
 21
442.4000004274945
 31
0.0
  0
LINE
  5
D5
330
55
100
AcDbEntity
  8
0
  6
Continuous
 62
     7
100
AcDbLine
 10
137.2499974485484
 20
442.4000004274944
 30
0.0
 11
137.2499974485484
 21
440.7581419987902
 31
0.0
  0
LINE
  5
D6
330
55
100
AcDbEntity
  8
0
  6
Continuous
 62
     7
100
AcDbLine
 10
145.4999974485484
 20
450.6500004274945
 30
0.0
 11
137.2499974485484
 21
442.4000004274944
 31
0.0
  0
LINE
  5
D7
330
55
100
AcDbEntity
  8
0
  6
Continuous
 62
     7
100
AcDbLine
 10
179.7499974485484
 20
442.4000004274945
 30
0.0
 11
171.4999974485484
 21
450.6500004274945
 31
0.0
  0
ENDBLK
  5
57
330
55
100
AcDbEntity
  8
0
100
AcDbBlockEnd
  0
BLOCK
  5
5A
330
58
100
AcDbEntity
  8
0
100
AcDbBlockBegin
  2
Rckans1
 70
     0
 10
158.4999961853139
 20
436.1000003814696
 30
0.0
  3
Rckans1
  1

  0
INSERT
  5
59
330
58
100
AcDbEntity
  8
0
100
AcDbBlockReference
  2
D_UK_16_BU-select__3
 10
137.2499974485484
 20
414.7500004274945
 30
0.0
  0
ENDBLK
  5
5B
330
58
100
AcDbEntity
  8
0
100
AcDbBlockEnd
  0
BLOCK
  5
5D
330
5C
100
AcDbEntity
  8
0
100
AcDbBlockBegin
  2
D_UK_16_BU-select__4
 70
     0
 10
98.49999809265137
 20
414.7500004274946
 30
0.0
  3
D_UK_16_BU-select__4
  1

  0
LINE
  5
D8
330
5C
100
AcDbEntity
  8
0
  6
Continuous
 62
     7
100
AcDbLine
 10
98.49999809265137
 20
414.7500004274946
 30
0.0
 11
98.49999809265137
 21
418.8500004274946
 31
0.0
  0
LINE
  5
D9
330
5C
100
AcDbEntity
  8
0
  6
Continuous
 62
     7
100
AcDbLine
 10
98.49999809265137
 20
418.8500004274946
 30
0.0
 11
98.49999809265137
 21
420.5500004274945
 31
0.0
  0
LINE
  5
DA
330
5C
100
AcDbEntity
  8
0
  6
Continuous
 62
     7
100
AcDbLine
 10
98.49999809265137
 20
450.6500004274946
 30
0.0
 11
98.49999809265137
 21
457.4500004274946
 31
0.0
  0
LINE
  5
DB
330
5C
100
AcDbEntity
  8
0
  6
Continuous
 62
     7
100
AcDbLine
 10
98.49999809265137
 20
436.7500004274946
 30
0.0
 11
99.99999809265137
 21
436.7500004274946
 31
0.0
  0
LINE
  5
DC
330
5C
100
AcDbEntity
  8
0
  6
Continuous
 62
     7
100
AcDbLine
 10
98.49999809265137
 20
441.1139532370627
 30
0.0
 11
98.49999809265137
 21
442.4000004274946
 31
0.0
  0
LINE
  5
DD
330
5C
100
AcDbEntity
  8
0
  6
Continuous
 62
     7
100
AcDbLine
 10
99.99999809265137
 20
441.1139532370627
 30
0.0
 11
99.99999809265137
 21
442.4000004274946
 31
0.0
  0
LINE
  5
DE
330
5C
100
AcDbEntity
  8
0
  6
Continuous
 62
     7
100
AcDbLine
 10
99.99999809265137
 20
442.4000004274946
 30
0.0
 11
98.49999809265137
 21
442.4000004274946
 31
0.0
  0
LINE
  5
DF
330
5C
100
AcDbEntity
  8
0
  6
Continuous
 62
     7
100
AcDbLine
 10
99.99999809265137
 20
441.1139532370627
 30
0.0
 11
98.49999809265137
 21
441.1139532370627
 31
0.0
  0
LINE
  5
E0
330
5C
100
AcDbEntity
  8
0
  6
Continuous
 62
     7
100
AcDbLine
 10
98.49999809265137
 20
440.4500004274946
 30
0.0
 11
99.99999809265137
 21
440.4500004274946
 31
0.0
  0
LINE
  5
E1
330
5C
100
AcDbEntity
  8
0
  6
Continuous
 62
     7
100
AcDbLine
 10
99.99999809265137
 20
440.4500004274946
 30
0.0
 11
99.99999809265137
 21
436.7500004274946
 31
0.0
  0
LINE
  5
E2
330
5C
100
AcDbEntity
  8
0
  6
Continuous
 62
     7
100
AcDbLine
 10
99.99999809265137
 20
457.4500004274946
 30
0.0
 11
98.49999809265137
 21
457.4500004274946
 31
0.0
  0
LINE
  5
E3
330
5C
100
AcDbEntity
  8
0
  6
Continuous
 62
     7
100
AcDbLine
 10
98.49999809265137
 20
442.4000004274946
 30
0.0
 11
98.49999809265137
 21
450.6500004274946
 31
0.0
  0
LINE
  5
E4
330
5C
100
AcDbEntity
  8
0
  6
Continuous
 62
     7
100
AcDbLine
 10
98.49999809265137
 20
440.4500004274946
 30
0.0
 11
98.49999809265137
 21
441.1139532370627
 31
0.0
  0
LINE
  5
E5
330
5C
100
AcDbEntity
  8
0
  6
Continuous
 62
     7
100
AcDbLine
 10
98.49999809265137
 20
436.7500004274946
 30
0.0
 11
98.49999809265137
 21
440.4500004274946
 31
0.0
  0
LINE
  5
E6
330
5C
100
AcDbEntity
  8
0
  6
Continuous
 62
     7
100
AcDbLine
 10
98.49999809265137
 20
450.6500004274946
 30
0.0
 11
99.99999809265137
 21
450.6500004274946
 31
0.0
  0
LINE
  5
E7
330
5C
100
AcDbEntity
  8
0
  6
Continuous
 62
     7
100
AcDbLine
 10
99.99999809265137
 20
418.8500004274946
 30
0.0
 11
98.49999809265137
 21
418.8500004274946
 31
0.0
  0
LINE
  5
E8
330
5C
100
AcDbEntity
  8
0
  6
Continuous
 62
     7
100
AcDbLine
 10
98.49999809265137
 20
420.5500004274945
 30
0.0
 11
99.99999809265137
 21
420.5500004274945
 31
0.0
  0
LINE
  5
E9
330
5C
100
AcDbEntity
  8
0
  6
Continuous
 62
     7
100
AcDbLine
 10
99.99999809265137
 20
450.6500004274946
 30
0.0
 11
99.99999809265137
 21
457.4500004274946
 31
0.0
  0
LINE
  5
EA
330
5C
100
AcDbEntity
  8
0
  6
Continuous
 62
     7
100
AcDbLine
 10
99.99999809265137
 20
440.4500004274946
 30
0.0
 11
99.99999809265137
 21
441.1139532370627
 31
0.0
  0
LINE
  5
EB
330
5C
100
AcDbEntity
  8
0
  6
Continuous
 62
     7
100
AcDbLine
 10
99.99999809265137
 20
450.6500004274946
 30
0.0
 11
99.99999809265137
 21
442.4000004274946
 31
0.0
  0
LINE
  5
EC
330
5C
100
AcDbEntity
  8
0
  6
Continuous
 62
     7
100
AcDbLine
 10
99.99999809265137
 20
414.7500004274946
 30
0.0
 11
99.99999809265137
 21
418.8500004274946
 31
0.0
  0
LINE
  5
ED
330
5C
100
AcDbEntity
  8
0
  6
Continuous
 62
     7
100
AcDbLine
 10
99.99999809265137
 20
436.7500004274946
 30
0.0
 11
99.99999809265137
 21
420.5500004274945
 31
0.0
  0
LINE
  5
EE
330
5C
100
AcDbEntity
  8
0
  6
Continuous
 62
     7
100
AcDbLine
 10
99.99999809265137
 20
418.8500004274946
 30
0.0
 11
99.99999809265137
 21
420.5500004274945
 31
0.0
  0
LINE
  5
EF
330
5C
100
AcDbEntity
  8
0
  6
Continuous
 62
     7
100
AcDbLine
 10
99.99999809265137
 20
414.7500004274946
 30
0.0
 11
98.49999809265137
 21
414.7500004274946
 31
0.0
  0
LINE
  5
F0
330
5C
100
AcDbEntity
  8
0
  6
Continuous
 62
     7
100
AcDbLine
 10
98.49999809265137
 20
420.5500004274945
 30
0.0
 11
98.49999809265137
 21
436.7500004274946
 31
0.0
  0
ENDBLK
  5
5E
330
5C
100
AcDbEntity
  8
0
100
AcDbBlockEnd
  0
BLOCK
  5
61
330
5F
100
AcDbEntity
  8
0
100
AcDbBlockBegin
  2
SA_Links1
 70
     0
 10
99.24999809265137
 20
436.1000003814697
 30
0.0
  3
SA_Links1
  1

  0
INSERT
  5
60
330
5F
100
AcDbEntity
  8
0
100
AcDbBlockReference
  2
D_UK_16_BU-select__4
 10
98.49999809265137
 20
414.7500004274946
 30
0.0
  0
ENDBLK
  5
62
330
5F
100
AcDbEntity
  8
0
100
AcDbBlockEnd
  0
BLOCK
  5
64
330
63
100
AcDbEntity
  8
0
100
AcDbBlockBegin
  2
D_UK_16_BU-select__5
 70
     0
 10
-26.99999809265126
 20
419.7500004274946
 30
0.0
  3
D_UK_16_BU-select__5
  1

  0
LINE
  5
F1
330
63
100
AcDbEntity
  8
0
  6
Continuous
 62
     7
100
AcDbLine
 10
-25.49999809265126
 20
441.7500004274946
 30
0.0
 11
-26.99999809265126
 21
441.7500004274946
 31
0.0
  0
LINE
  5
F2
330
63
100
AcDbEntity
  8
0
  6
Continuous
 62
     7
100
AcDbLine
 10
-25.49999809265126
 20
425.5500004274946
 30
0.0
 11
-26.99999809265126
 21
425.5500004274946
 31
0.0
  0
LINE
  5
F3
330
63
100
AcDbEntity
  8
0
  6
Continuous
 62
     7
100
AcDbLine
 10
-26.99999809265126
 20
423.8500004274946
 30
0.0
 11
-25.49999809265126
 21
423.8500004274946
 31
0.0
  0
LINE
  5
F4
330
63
100
AcDbEntity
  8
0
  6
Continuous
 62
     7
100
AcDbLine
 10
-26.99999809265126
 20
419.7500004274946
 30
0.0
 11
-25.49999809265126
 21
419.7500004274946
 31
0.0
  0
LINE
  5
F5
330
63
100
AcDbEntity
  8
0
  6
Continuous
 62
     7
100
AcDbLine
 10
-25.49999809265126
 20
445.7581419987904
 30
0.0
 11
-25.49999809265126
 21
445.4500004274946
 31
0.0
  0
LINE
  5
F6
330
63
100
AcDbEntity
  8
0
  6
Continuous
 62
     7
100
AcDbLine
 10
-25.49999809265126
 20
445.4500004274946
 30
0.0
 11
-25.49999809265126
 21
441.7500004274946
 31
0.0
  0
LINE
  5
F7
330
63
100
AcDbEntity
  8
0
  6
Continuous
 62
     7
100
AcDbLine
 10
-25.49999809265126
 20
425.5500004274946
 30
0.0
 11
-25.49999809265126
 21
423.8500004274946
 31
0.0
  0
LINE
  5
F8
330
63
100
AcDbEntity
  8
0
  6
Continuous
 62
     7
100
AcDbLine
 10
-25.49999809265126
 20
423.8500004274946
 30
0.0
 11
-25.49999809265126
 21
419.7500004274946
 31
0.0
  0
LINE
  5
F9
330
63
100
AcDbEntity
  8
0
  6
Continuous
 62
     7
100
AcDbLine
 10
-26.99999809265126
 20
445.7581419987904
 30
0.0
 11
-26.99999809265126
 21
445.4500004274946
 31
0.0
  0
LINE
  5
FA
330
63
100
AcDbEntity
  8
0
  6
Continuous
 62
     7
100
AcDbLine
 10
-26.99999809265126
 20
445.7581419987904
 30
0.0
 11
-25.49999809265126
 21
445.7581419987904
 31
0.0
  0
LINE
  5
FB
330
63
100
AcDbEntity
  8
0
  6
Continuous
 62
     7
100
AcDbLine
 10
-26.99999809265126
 20
462.4500004274946
 30
0.0
 11
-25.49999809265126
 21
462.4500004274946
 31
0.0
  0
LINE
  5
FC
330
63
100
AcDbEntity
  8
0
  6
Continuous
 62
     7
100
AcDbLine
 10
-25.49999809265126
 20
455.6500004274946
 30
0.0
 11
-26.99999809265126
 21
455.6500004274946
 31
0.0
  0
LINE
  5
FD
330
63
100
AcDbEntity
  8
0
  6
Continuous
 62
     7
100
AcDbLine
 10
-25.49999809265126
 20
462.4500004274946
 30
0.0
 11
-25.49999809265126
 21
455.6500004274946
 31
0.0
  0
LINE
  5
FE
330
63
100
AcDbEntity
  8
0
  6
Continuous
 62
     7
100
AcDbLine
 10
-26.99999809265126
 20
447.4000004274946
 30
0.0
 11
-25.49999809265126
 21
447.4000004274946
 31
0.0
  0
LINE
  5
FF
330
63
100
AcDbEntity
  8
0
  6
Continuous
 62
     7
100
AcDbLine
 10
-26.99999809265126
 20
447.4000004274946
 30
0.0
 11
-26.99999809265126
 21
445.7581419987904
 31
0.0
  0
LINE
  5
100
330
63
100
AcDbEntity
  8
0
  6
Continuous
 62
     7
100
AcDbLine
 10
-26.99999809265126
 20
447.4000004274946
 30
0.0
 11
-26.99999809265126
 21
455.6500004274946
 31
0.0
  0
LINE
  5
101
330
63
100
AcDbEntity
  8
0
  6
Continuous
 62
     7
100
AcDbLine
 10
-26.99999809265126
 20
462.4500004274946
 30
0.0
 11
-26.99999809265126
 21
455.6500004274946
 31
0.0
  0
LINE
  5
102
330
63
100
AcDbEntity
  8
0
  6
Continuous
 62
     7
100
AcDbLine
 10
-26.99999809265126
 20
441.7500004274946
 30
0.0
 11
-26.99999809265126
 21
445.4500004274946
 31
0.0
  0
LINE
  5
103
330
63
100
AcDbEntity
  8
0
  6
Continuous
 62
     7
100
AcDbLine
 10
-26.99999809265126
 20
425.5500004274946
 30
0.0
 11
-26.99999809265126
 21
441.7500004274946
 31
0.0
  0
LINE
  5
104
330
63
100
AcDbEntity
  8
0
  6
Continuous
 62
     7
100
AcDbLine
 10
-26.99999809265126
 20
425.5500004274946
 30
0.0
 11
-26.99999809265126
 21
423.8500004274946
 31
0.0
  0
LINE
  5
105
330
63
100
AcDbEntity
  8
0
  6
Continuous
 62
     7
100
AcDbLine
 10
-26.99999809265126
 20
423.8500004274946
 30
0.0
 11
-26.99999809265126
 21
419.7500004274946
 31
0.0
  0
LINE
  5
106
330
63
100
AcDbEntity
  8
0
  6
Continuous
 62
     7
100
AcDbLine
 10
-25.49999809265126
 20
447.4000004274946
 30
0.0
 11
-25.49999809265126
 21
445.7581419987904
 31
0.0
  0
LINE
  5
107
330
63
100
AcDbEntity
  8
0
  6
Continuous
 62
     7
100
AcDbLine
 10
-25.49999809265126
 20
455.6500004274946
 30
0.0
 11
-25.49999809265126
 21
447.4000004274946
 31
0.0
  0
LINE
  5
108
330
63
100
AcDbEntity
  8
0
  6
Continuous
 62
     7
100
AcDbLine
 10
-25.49999809265126
 20
445.4500004274946
 30
0.0
 11
-26.99999809265126
 21
445.4500004274946
 31
0.0
  0
LINE
  5
109
330
63
100
AcDbEntity
  8
0
  6
Continuous
 62
     7
100
AcDbLine
 10
-25.49999809265126
 20
441.7500004274946
 30
0.0
 11
-25.49999809265126
 21
425.5500004274946
 31
0.0
  0
ENDBLK
  5
65
330
63
100
AcDbEntity
  8
0
100
AcDbBlockEnd
  0
BLOCK
  5
68
330
66
100
AcDbEntity
  8
0
100
AcDbBlockBegin
  2
SA_Rechts1
 70
     0
 10
-26.24999809265126
 20
441.1000003814697
 30
0.0
  3
SA_Rechts1
  1

  0
INSERT
  5
67
330
66
100
AcDbEntity
  8
0
100
AcDbBlockReference
  2
D_UK_16_BU-select__5
 10
-26.99999809265126
 20
419.7500004274946
 30
0.0
  0
ENDBLK
  5
69
330
66
100
AcDbEntity
  8
0
100
AcDbBlockEnd
  0
BLOCK
  5
6B
330
6A
100
AcDbEntity
  8
0
100
AcDbBlockBegin
  2
D_UK_16_BU-select__6
 70
     0
 10
16.74999873676033
 20
419.7500004274946
 30
0.0
  3
D_UK_16_BU-select__6
  1

  0
LINE
  5
10A
330
6A
100
AcDbEntity
  8
0
  6
Continuous
 62
     7
100
AcDbLine
 10
24.99999873676038
 20
462.4500004274946
 30
0.0
 11
50.99999873676038
 21
462.4500004274946
 31
0.0
  0
LINE
  5
10B
330
6A
100
AcDbEntity
  8
0
  6
Continuous
 62
     7
100
AcDbLine
 10
24.99999873676038
 20
455.6500004274946
 30
0.0
 11
24.99999873676038
 21
462.4500004274946
 31
0.0
  0
LINE
  5
10C
330
6A
100
AcDbEntity
  8
0
  6
Continuous
 62
     7
100
AcDbLine
 10
50.99999873676038
 20
462.4500004274946
 30
0.0
 11
50.99999873676037
 21
455.6500004274946
 31
0.0
  0
LINE
  5
10D
330
6A
100
AcDbEntity
  8
0
  6
Continuous
 62
     7
100
AcDbLine
 10
16.74999873676038
 20
419.7500004274946
 30
0.0
 11
16.74999873676033
 21
423.8500004274945
 31
0.0
  0
LINE
  5
10E
330
6A
100
AcDbEntity
  8
0
  6
Continuous
 62
     7
100
AcDbLine
 10
16.74999873676033
 20
423.8500004274945
 30
0.0
 11
19.99999873676024
 21
425.5500004274945
 31
0.0
  0
LINE
  5
10F
330
6A
100
AcDbEntity
  8
0
  6
Continuous
 62
     7
100
AcDbLine
 10
19.99999873676038
 20
441.7500004274946
 30
0.0
 11
19.99999873676024
 21
425.5500004274945
 31
0.0
  0
LINE
  5
110
330
6A
100
AcDbEntity
  8
0
  6
Continuous
 62
     7
100
AcDbLine
 10
17.89999873676038
 20
445.4500004274946
 30
0.0
 11
19.99999873676038
 21
441.7500004274946
 31
0.0
  0
LINE
  5
111
330
6A
100
AcDbEntity
  8
0
  6
Continuous
 62
     7
100
AcDbLine
 10
16.74999873676038
 20
446.1139532370627
 30
0.0
 11
16.74999873676038
 21
447.4000004274946
 31
0.0
  0
LINE
  5
112
330
6A
100
AcDbEntity
  8
0
  6
Continuous
 62
     7
100
AcDbLine
 10
59.24999873676038
 20
447.4000004274946
 30
0.0
 11
59.24999873676038
 21
445.7581419987903
 31
0.0
  0
LINE
  5
113
330
6A
100
AcDbEntity
  8
0
  6
Continuous
 62
     7
100
AcDbLine
 10
17.89999873676038
 20
445.4500004274946
 30
0.0
 11
16.74999873676038
 21
446.1139532370627
 31
0.0
  0
LINE
  5
114
330
6A
100
AcDbEntity
  8
0
  6
Continuous
 62
     7
100
AcDbLine
 10
59.24999873676038
 20
445.7581419987903
 30
0.0
 11
58.09999873676038
 21
445.4500004274946
 31
0.0
  0
LINE
  5
115
330
6A
100
AcDbEntity
  8
0
  6
Continuous
 62
     7
100
AcDbLine
 10
59.24999873676038
 20
419.7500004274946
 30
0.0
 11
16.74999873676038
 21
419.7500004274946
 31
0.0
  0
LINE
  5
116
330
6A
100
AcDbEntity
  8
0
  6
Continuous
 62
     7
100
AcDbLine
 10
59.24999873676038
 20
423.8500004274946
 30
0.0
 11
59.24999873676038
 21
419.7500004274946
 31
0.0
  0
LINE
  5
117
330
6A
100
AcDbEntity
  8
0
  6
Continuous
 62
     7
100
AcDbLine
 10
55.99999873676038
 20
425.5500004274946
 30
0.0
 11
59.24999873676038
 21
423.8500004274946
 31
0.0
  0
LINE
  5
118
330
6A
100
AcDbEntity
  8
0
  6
Continuous
 62
     7
100
AcDbLine
 10
55.99999873676038
 20
425.5500004274946
 30
0.0
 11
55.99999873676037
 21
441.7500004274946
 31
0.0
  0
LINE
  5
119
330
6A
100
AcDbEntity
  8
0
  6
Continuous
 62
     7
100
AcDbLine
 10
55.99999873676037
 20
441.7500004274946
 30
0.0
 11
58.09999873676038
 21
445.4500004274946
 31
0.0
  0
LINE
  5
11A
330
6A
100
AcDbEntity
  8
0
  6
Continuous
 62
     7
100
AcDbLine
 10
59.24999873676038
 20
447.4000004274946
 30
0.0
 11
50.99999873676037
 21
455.6500004274946
 31
0.0
  0
LINE
  5
11B
330
6A
100
AcDbEntity
  8
0
  6
Continuous
 62
     7
100
AcDbLine
 10
24.99999873676038
 20
455.6500004274946
 30
0.0
 11
16.74999873676038
 21
447.4000004274946
 31
0.0
  0
ENDBLK
  5
6C
330
6A
100
AcDbEntity
  8
0
100
AcDbBlockEnd
  0
BLOCK
  5
6F
330
6D
100
AcDbEntity
  8
0
100
AcDbBlockBegin
  2
Vordans1
 70
     0
 10
37.99999999999487
 20
441.1000003814697
 30
0.0
  3
Vordans1
  1

  0
INSERT
  5
6E
330
6D
100
AcDbEntity
  8
0
100
AcDbBlockReference
  2
D_UK_16_BU-select__6
 10
16.74999873676033
 20
419.7500004274946
 30
0.0
  0
DIMENSION
  5
126
330
6D
100
AcDbEntity
  8
1
100
AcDbDimension
  2
*D18
 10
6.74999873676038
 20
462.4500004274946
 30
0.0
 11
3.32499873676038
 21
440.921919291371
 31
0.0
 70
    32
  1
<>
 71
     5
 42
-1.0
 53
90.0
  3
ME10_DIM_11
100
AcDbAlignedDimension
 13
16.74999873676038
 23
419.7500004274946
 33
0.0
 14
24.99999873676038
 24
462.4500004274946
 34
0.0
 50
90.0
100
AcDbRotatedDimension
  0
DIMENSION
  5
131
330
6D
100
AcDbEntity
  8
1
100
AcDbDimension
  2
*D19
 10
16.74999873676038
 20
409.7500004274946
 30
0.0
 11
38.13750070961087
 21
413.1750004274946
 31
0.0
 70
    32
  1
<>
 71
     5
 42
-1.0
 53
0.00013888888889
  3
ME10_DIM_12
100
AcDbAlignedDimension
 13
59.24999873676038
 23
419.7500004274946
 33
0.0
 14
16.74999873676038
 24
419.7500004274946
 34
0.0
100
AcDbRotatedDimension
  0
ENDBLK
  5
70
330
6D
100
AcDbEntity
  8
0
100
AcDbBlockEnd
  0
BLOCK
  5
72
330
71
100
AcDbEntity
  8
0
100
AcDbBlockBegin
  2
_rahmen
 70
     0
 10
220.2665558136806
 20
315.6615493383762
 30
0.0
  3
_rahmen
  1

  0
LINE
  5
132
330
71
100
AcDbEntity
  8
1
  6
Continuous
 62
     6
100
AcDbLine
 10
90.72175128693058
 20
346.1615493383763
 30
0.0
 11
220.2665558136823
 21
346.1615493383763
 31
0.0
  0
LINE
  5
133
330
71
100
AcDbEntity
  8
1
  6
Continuous
 62
     7
100
AcDbLine
 10
108.9217512869306
 20
324.9115493383763
 30
0.0
 11
127.1217512869305
 21
324.9115493383763
 31
0.0
  0
LINE
  5
134
330
71
100
AcDbEntity
  8
1
  6
Continuous
 62
     6
100
AcDbLine
 10
108.9217512869306
 20
320.6615493383763
 30
0.0
 11
90.72175128693058
 21
320.6615493383762
 31
0.0
  0
LINE
  5
135
330
71
100
AcDbEntity
  8
1
  6
Continuous
 62
     7
100
AcDbLine
 10
108.9217512869306
 20
324.9115493383763
 30
0.0
 11
108.9217512869306
 21
320.6615493383763
 31
0.0
  0
LINE
  5
136
330
71
100
AcDbEntity
  8
1
  6
Continuous
 62
     7
100
AcDbLine
 10
127.1217512869305
 20
324.9115493383763
 30
0.0
 11
127.1217512869305
 21
320.6615493383762
 31
0.0
  0
LINE
  5
137
330
71
100
AcDbEntity
  8
1
  6
Continuous
 62
     7
100
AcDbLine
 10
90.72175128693058
 20
324.9115493383762
 30
0.0
 11
90.72175128693058
 21
320.6615493383762
 31
0.0
  0
LINE
  5
138
330
71
100
AcDbEntity
  8
1
  6
Continuous
 62
     7
100
AcDbLine
 10
90.72175128693058
 20
324.9115493383762
 30
0.0
 11
108.9217512869306
 21
324.9115493383763
 31
0.0
  0
LINE
  5
139
330
71
100
AcDbEntity
  8
1
  6
Continuous
 62
     2
100
AcDbLine
 10
99.95840617349319
 20
344.2865493383762
 30
0.0
 11
99.95840617349319
 21
339.2865493383762
 31
0.0
  0
LINE
  5
13A
330
71
100
AcDbEntity
  8
1
  6
Continuous
 62
     2
100
AcDbLine
 10
99.95840617349319
 20
339.2865493383762
 30
0.0
 11
94.95840617349319
 21
340.5365493383762
 31
0.0
  0
LINE
  5
13B
330
71
100
AcDbEntity
  8
1
  6
Continuous
 62
     2
100
AcDbLine
 10
94.95840617349319
 20
340.5365493383762
 30
0.0
 11
94.95840617349319
 21
343.0365493383762
 31
0.0
  0
LINE
  5
13C
330
71
100
AcDbEntity
  8
1
  6
Continuous
 62
     2
100
AcDbLine
 10
94.95840617349319
 20
343.0365493383762
 30
0.0
 11
99.95840617349319
 21
344.2865493383762
 31
0.0
  0
LINE
  5
13D
330
71
100
AcDbEntity
  8
1
  6
Continuous
 62
     6
100
AcDbLine
 10
-31.73344418631763
 20
320.6615493383763
 30
0.0
 11
-66.73344418631751
 21
320.6615493383763
 31
0.0
  0
LINE
  5
13E
330
71
100
AcDbEntity
  8
1
  6
Continuous
 62
     6
100
AcDbLine
 10
220.2665558136823
 20
337.6615493383763
 30
0.0
 11
220.2665558136819
 21
329.1615493383763
 31
0.0
  0
LINE
  5
13F
330
71
100
AcDbEntity
  8
1
  6
Continuous
 62
     6
100
AcDbLine
 10
127.1217512869305
 20
320.6615493383762
 30
0.0
 11
126.7665558136806
 21
320.6615493383763
 31
0.0
  0
LINE
  5
140
330
71
100
AcDbEntity
  8
1
  6
Continuous
 62
     6
100
AcDbLine
 10
-25.53344418631963
 20
320.6615493383762
 30
0.0
 11
-31.73344418631763
 21
320.6615493383763
 31
0.0
  0
LINE
  5
141
330
71
100
AcDbEntity
  8
1
  6
Continuous
 62
     7
100
AcDbLine
 10
127.1217512869305
 20
337.6615493383763
 30
0.0
 11
127.1217512869305
 21
324.9115493383763
 31
0.0
  0
LINE
  5
142
330
71
100
AcDbEntity
  8
1
  6
Continuous
 62
     7
100
AcDbLine
 10
90.72175128693058
 20
337.6615493383763
 30
0.0
 11
90.72175128693058
 21
324.9115493383762
 31
0.0
  0
LINE
  5
143
330
71
100
AcDbEntity
  8
1
  6
Continuous
 62
     6
100
AcDbLine
 10
76.76655581368061
 20
320.6615493383763
 30
0.0
 11
26.76655581368038
 21
320.6615493383763
 31
0.0
  0
LINE
  5
144
330
71
100
AcDbEntity
  8
1
  6
Continuous
 62
     6
100
AcDbLine
 10
-25.53344418631963
 20
320.6615493383762
 30
0.0
 11
-23.23344418631939
 21
320.6615493383763
 31
0.0
  0
LINE
  5
145
330
71
100
AcDbEntity
  8
1
  6
Continuous
 62
     6
100
AcDbLine
 10
127.1217512869305
 20
320.6615493383762
 30
0.0
 11
176.7665558136806
 21
320.6615493383763
 31
0.0
  0
LINE
  5
146
330
71
100
AcDbEntity
  8
1
  6
Continuous
 62
     6
100
AcDbLine
 10
220.2665558136806
 20
320.6615493383763
 30
0.0
 11
220.2665558136819
 21
329.1615493383763
 31
0.0
  0
LINE
  5
147
330
71
100
AcDbEntity
  8
1
  6
Continuous
 62
     2
100
AcDbLine
 10
-71.73344418631848
 20
320.6615493383763
 30
0.0
 11
-71.73344418631848
 21
315.6615493383762
 31
0.0
  0
LINE
  5
148
330
71
100
AcDbEntity
  8
1
  6
Continuous
 62
     2
100
AcDbLine
 10
-66.73344418631751
 20
320.6615493383763
 30
0.0
 11
-71.73344418631848
 21
320.6615493383763
 31
0.0
  0
LINE
  5
149
330
71
100
AcDbEntity
  8
1
  6
Continuous
 62
     2
100
AcDbLine
 10
-66.73344418631751
 20
315.6615493383762
 30
0.0
 11
-23.23344418631939
 21
315.6615493383762
 31
0.0
  0
LINE
  5
14A
330
71
100
AcDbEntity
  8
1
  6
Continuous
 62
     2
100
AcDbLine
 10
-66.73344418631751
 20
320.6615493383763
 30
0.0
 11
-66.73344418631751
 21
315.6615493383762
 31
0.0
  0
LINE
  5
14B
330
71
100
AcDbEntity
  8
1
  6
Continuous
 62
     2
100
AcDbLine
 10
176.7665558136806
 20
315.6615493383762
 30
0.0
 11
126.7665558136806
 21
315.6615493383762
 31
0.0
  0
LINE
  5
14C
330
71
100
AcDbEntity
  8
1
  6
Continuous
 62
     2
100
AcDbLine
 10
176.7665558136806
 20
315.6615493383762
 30
0.0
 11
176.7665558136806
 21
320.6615493383763
 31
0.0
  0
LINE
  5
14D
330
71
100
AcDbEntity
  8
1
  6
Continuous
 62
     2
100
AcDbLine
 10
126.7665558136806
 20
315.6615493383762
 30
0.0
 11
126.7665558136806
 21
320.6615493383763
 31
0.0
  0
LINE
  5
14E
330
71
100
AcDbEntity
  8
1
  6
Continuous
 62
     2
100
AcDbLine
 10
76.76655581368061
 20
315.6615493383762
 30
0.0
 11
126.7665558136806
 21
315.6615493383762
 31
0.0
  0
LINE
  5
14F
330
71
100
AcDbEntity
  8
1
  6
Continuous
 62
     2
100
AcDbLine
 10
76.76655581368061
 20
315.6615493383762
 30
0.0
 11
76.76655581368061
 21
320.6615493383763
 31
0.0
  0
LINE
  5
150
330
71
100
AcDbEntity
  8
1
  6
Continuous
 62
     2
100
AcDbLine
 10
26.76655581368038
 20
315.6615493383762
 30
0.0
 11
76.76655581368061
 21
315.6615493383762
 31
0.0
  0
LINE
  5
151
330
71
100
AcDbEntity
  8
1
  6
Continuous
 62
     2
100
AcDbLine
 10
26.76655581368038
 20
315.6615493383762
 30
0.0
 11
26.76655581368038
 21
320.6615493383763
 31
0.0
  0
LINE
  5
152
330
71
100
AcDbEntity
  8
1
  6
Continuous
 62
     2
100
AcDbLine
 10
-23.23344418631939
 20
315.6615493383762
 30
0.0
 11
26.76655581368038
 21
315.6615493383762
 31
0.0
  0
LINE
  5
153
330
71
100
AcDbEntity
  8
1
  6
Continuous
 62
     2
100
AcDbLine
 10
-23.23344418631939
 20
315.6615493383762
 30
0.0
 11
-23.23344418631939
 21
320.6615493383763
 31
0.0
  0
LINE
  5
154
330
71
100
AcDbEntity
  8
1
  6
Continuous
 62
     6
100
AcDbLine
 10
-66.73344418631768
 20
370.6615493383764
 30
0.0
 11
-66.73344418631751
 21
320.6615493383763
 31
0.0
  0
LINE
  5
155
330
71
100
AcDbEntity
  8
1
  6
Continuous
 62
     2
100
AcDbLine
 10
-71.73344418631848
 20
370.6615493383764
 30
0.0
 11
-71.73344418631848
 21
320.6615493383763
 31
0.0
  0
LINE
  5
156
330
71
100
AcDbEntity
  8
1
  6
Continuous
 62
     2
100
AcDbLine
 10
-71.73344418631848
 20
370.6615493383764
 30
0.0
 11
-66.73344418631768
 21
370.6615493383764
 31
0.0
  0
LINE
  5
157
330
71
100
AcDbEntity
  8
1
  6
Continuous
 62
     6
100
AcDbLine
 10
-66.73344418631791
 20
420.6615493383762
 30
0.0
 11
-66.73344418631768
 21
370.6615493383764
 31
0.0
  0
LINE
  5
158
330
71
100
AcDbEntity
  8
1
  6
Continuous
 62
     2
100
AcDbLine
 10
-71.73344418631848
 20
420.6615493383762
 30
0.0
 11
-71.73344418631848
 21
370.6615493383764
 31
0.0
  0
LINE
  5
159
330
71
100
AcDbEntity
  8
1
  6
Continuous
 62
     2
100
AcDbLine
 10
-71.73344418631848
 20
420.6615493383762
 30
0.0
 11
-66.73344418631791
 21
420.6615493383762
 31
0.0
  0
LINE
  5
15A
330
71
100
AcDbEntity
  8
1
  6
Continuous
 62
     6
100
AcDbLine
 10
-66.73344418631842
 20
470.6615493383763
 30
0.0
 11
-66.73344418631791
 21
420.6615493383762
 31
0.0
  0
LINE
  5
15B
330
71
100
AcDbEntity
  8
1
  6
Continuous
 62
     2
100
AcDbLine
 10
-71.73344418631848
 20
470.6615493383763
 30
0.0
 11
-71.73344418631848
 21
420.6615493383762
 31
0.0
  0
LINE
  5
15C
330
71
100
AcDbEntity
  8
1
  6
Continuous
 62
     2
100
AcDbLine
 10
-71.73344418631848
 20
470.6615493383763
 30
0.0
 11
-66.73344418631842
 21
470.6615493383763
 31
0.0
  0
LINE
  5
15D
330
71
100
AcDbEntity
  8
1
  6
Continuous
 62
     6
100
AcDbLine
 10
-66.73344418631848
 20
505.6615493383763
 30
0.0
 11
-66.73344418631842
 21
470.6615493383763
 31
0.0
  0
LINE
  5
15E
330
71
100
AcDbEntity
  8
1
  6
Continuous
 62
     2
100
AcDbLine
 10
-71.73344418631848
 20
525.6615493383763
 30
0.0
 11
-71.73344418631848
 21
470.6615493383763
 31
0.0
  0
LINE
  5
15F
330
71
100
AcDbEntity
  8
1
  6
Continuous
 62
     2
100
AcDbLine
 10
-71.73344418631848
 20
315.6615493383762
 30
0.0
 11
-66.73344418631751
 21
315.6615493383762
 31
0.0
  0
LINE
  5
160
330
71
100
AcDbEntity
  8
1
  6
Continuous
 62
     2
100
AcDbLine
 10
76.76655581368061
 20
525.6615493383763
 30
0.0
 11
76.76655581368061
 21
516.452857493675
 31
0.0
  0
LINE
  5
161
330
71
100
AcDbEntity
  8
1
  6
Continuous
 62
     2
100
AcDbLine
 10
76.76655581368061
 20
525.6615493383763
 30
0.0
 11
-71.73344418631848
 21
525.6615493383763
 31
0.0
  0
LINE
  5
162
330
71
100
AcDbEntity
  8
1
  6
Continuous
 62
     2
100
AcDbLine
 10
225.2665558136796
 20
320.6615493383763
 30
0.0
 11
225.2665558136796
 21
370.6615493383764
 31
0.0
  0
LINE
  5
163
330
71
100
AcDbEntity
  8
1
  6
Continuous
 62
     2
100
AcDbLine
 10
225.2665558136796
 20
470.6615493383763
 30
0.0
 11
225.2665558136796
 21
525.6615493383763
 31
0.0
  0
LINE
  5
164
330
71
100
AcDbEntity
  8
1
  6
Continuous
 62
     6
100
AcDbLine
 10
220.2665558136798
 20
470.6615493383763
 30
0.0
 11
220.2665558136796
 21
505.6615493383763
 31
0.0
  0
LINE
  5
165
330
71
100
AcDbEntity
  8
1
  6
Continuous
 62
     2
100
AcDbLine
 10
220.2665558136798
 20
470.6615493383763
 30
0.0
 11
225.2665558136796
 21
470.6615493383763
 31
0.0
  0
LINE
  5
166
330
71
100
AcDbEntity
  8
1
  6
Continuous
 62
     2
100
AcDbLine
 10
225.2665558136796
 20
420.6615493383762
 30
0.0
 11
225.2665558136796
 21
470.6615493383763
 31
0.0
  0
LINE
  5
167
330
71
100
AcDbEntity
  8
1
  6
Continuous
 62
     6
100
AcDbLine
 10
220.266555813681
 20
420.6615493383762
 30
0.0
 11
220.2665558136798
 21
470.6615493383763
 31
0.0
  0
LINE
  5
168
330
71
100
AcDbEntity
  8
1
  6
Continuous
 62
     2
100
AcDbLine
 10
220.266555813681
 20
420.6615493383762
 30
0.0
 11
225.2665558136796
 21
420.6615493383762
 31
0.0
  0
LINE
  5
169
330
71
100
AcDbEntity
  8
1
  6
Continuous
 62
     2
100
AcDbLine
 10
225.2665558136796
 20
370.6615493383764
 30
0.0
 11
225.2665558136796
 21
420.6615493383762
 31
0.0
  0
LINE
  5
16A
330
71
100
AcDbEntity
  8
1
  6
Continuous
 62
     6
100
AcDbLine
 10
220.2665558136815
 20
370.6615493383764
 30
0.0
 11
220.266555813681
 21
420.6615493383762
 31
0.0
  0
LINE
  5
16B
330
71
100
AcDbEntity
  8
1
  6
Continuous
 62
     2
100
AcDbLine
 10
220.2665558136815
 20
370.6615493383764
 30
0.0
 11
225.2665558136796
 21
370.6615493383764
 31
0.0
  0
LINE
  5
16C
330
71
100
AcDbEntity
  8
1
  6
Continuous
 62
     6
100
AcDbLine
 10
220.2665558136796
 20
505.6615493383763
 30
0.0
 11
-66.73344418631848
 21
505.6615493383763
 31
0.0
  0
LINE
  5
16D
330
71
100
AcDbEntity
  8
1
  6
Continuous
 62
     2
100
AcDbLine
 10
225.2665558136796
 20
525.6615493383763
 30
0.0
 11
76.76655581368061
 21
525.6615493383763
 31
0.0
  0
LINE
  5
16E
330
71
100
AcDbEntity
  8
1
  6
Continuous
 62
     6
100
AcDbLine
 10
220.2665558136823
 20
337.6615493383763
 30
0.0
 11
220.2665558136815
 21
370.6615493383764
 31
0.0
  0
LINE
  5
16F
330
71
100
AcDbEntity
  8
1
  6
Continuous
 62
     2
100
AcDbLine
 10
220.2665558136806
 20
315.6615493383762
 30
0.0
 11
176.7665558136806
 21
315.6615493383762
 31
0.0
  0
LINE
  5
170
330
71
100
AcDbEntity
  8
1
  6
Continuous
 62
     2
100
AcDbLine
 10
225.2665558136796
 20
315.6615493383762
 30
0.0
 11
220.2665558136806
 21
315.6615493383762
 31
0.0
  0
LINE
  5
171
330
71
100
AcDbEntity
  8
1
  6
Continuous
 62
     2
100
AcDbLine
 10
225.2665558136796
 20
315.6615493383762
 30
0.0
 11
225.2665558136796
 21
320.6615493383763
 31
0.0
  0
LINE
  5
172
330
71
100
AcDbEntity
  8
1
  6
Continuous
 62
     6
100
AcDbLine
 10
90.72175128693058
 20
337.6615493383763
 30
0.0
 11
127.1217512869305
 21
337.6615493383763
 31
0.0
  0
LINE
  5
173
330
71
100
AcDbEntity
  8
1
  6
Continuous
 62
     2
100
AcDbLine
 10
220.2665558136806
 20
320.6615493383763
 30
0.0
 11
220.2665558136806
 21
315.6615493383762
 31
0.0
  0
LINE
  5
174
330
71
100
AcDbEntity
  8
1
  6
Continuous
 62
     2
100
AcDbLine
 10
220.2665558136806
 20
320.6615493383763
 30
0.0
 11
225.2665558136796
 21
320.6615493383763
 31
0.0
  0
LINE
  5
175
330
71
100
AcDbEntity
  8
1
  6
Continuous
 62
     6
100
AcDbLine
 10
126.7665558136806
 20
320.6615493383763
 30
0.0
 11
108.9217512869306
 21
320.6615493383763
 31
0.0
  0
LINE
  5
176
330
71
100
AcDbEntity
  8
1
  6
Continuous
 62
     6
100
AcDbLine
 10
176.7665558136806
 20
320.6615493383763
 30
0.0
 11
220.2665558136806
 21
320.6615493383763
 31
0.0
  0
LINE
  5
177
330
71
100
AcDbEntity
  8
1
  6
Continuous
 62
     6
100
AcDbLine
 10
26.76655581368038
 20
320.6615493383763
 30
0.0
 11
21.72175128693061
 21
320.6615493383763
 31
0.0
  0
LINE
  5
178
330
71
100
AcDbEntity
  8
1
  6
Continuous
 62
     6
100
AcDbLine
 10
76.76655581368061
 20
320.6615493383763
 30
0.0
 11
90.72175128693058
 21
320.6615493383762
 31
0.0
  0
LINE
  5
179
102
{ACAD_REACTORS
330
263
330
264
102
}
330
71
100
AcDbEntity
  8
0
  6
Continuous
 62
     2
100
AcDbLine
 10
98.23637722907739
 20
332.7340640945884
 30
0.0
 11
98.23637722907739
 21
333.3395993830952
 31
0.0
  0
LINE
  5
17A
102
{ACAD_REACTORS
330
263
330
264
102
}
330
71
100
AcDbEntity
  8
0
  6
Continuous
 62
     2
100
AcDbLine
 10
98.23637722907739
 20
329.9339294879571
 30
0.0
 11
98.23637722907739
 21
330.5157808946522
 31
0.0
  0
LINE
  5
17B
102
{ACAD_REACTORS
330
265
330
266
102
}
330
71
100
AcDbEntity
  8
0
  6
Continuous
 62
     2
100
AcDbLine
 10
120.8658636645566
 20
330.2235935560801
 30
0.0
 11
120.8658636645566
 21
327.9550493383926
 31
0.0
  0
LINE
  5
17C
102
{ACAD_REACTORS
330
265
330
266
102
}
330
71
100
AcDbEntity
  8
0
  6
Continuous
 62
     2
100
AcDbLine
 10
119.484809885569
 20
331.0088588622032
 30
0.0
 11
122.8697554041977
 21
331.0088588622037
 31
0.0
  0
LINE
  5
17D
102
{ACAD_REACTORS
330
265
330
266
102
}
330
71
100
AcDbEntity
  8
0
  6
Continuous
 62
     2
100
AcDbLine
 10
122.8697554041977
 20
330.2235935560801
 30
0.0
 11
122.8697554041977
 21
331.0088588622037
 31
0.0
  0
LINE
  5
17E
102
{ACAD_REACTORS
330
265
330
266
102
}
330
71
100
AcDbEntity
  8
0
  6
Continuous
 62
     2
100
AcDbLine
 10
122.0586563667243
 20
330.2235935560801
 30
0.0
 11
122.8697554041977
 21
330.2235935560801
 31
0.0
  0
LINE
  5
17F
102
{ACAD_REACTORS
330
265
330
266
102
}
330
71
100
AcDbEntity
  8
0
  6
Continuous
 62
     2
100
AcDbLine
 10
122.0586563667243
 20
327.9550493383926
 30
0.0
 11
122.0586563667243
 21
330.2235935560801
 31
0.0
  0
LINE
  5
180
102
{ACAD_REACTORS
330
265
330
266
102
}
330
71
100
AcDbEntity
  8
0
  6
Continuous
 62
     2
100
AcDbLine
 10
120.8658636645566
 20
327.9550493383926
 30
0.0
 11
122.0586563667243
 21
327.9550493383926
 31
0.0
  0
LINE
  5
181
102
{ACAD_REACTORS
330
25B
330
25C
102
}
330
71
100
AcDbEntity
  8
0
  6
Continuous
 62
     2
100
AcDbLine
 10
120.1692727264921
 20
334.3680493383781
 30
0.0
 11
118.7665485087428
 21
334.3680493383781
 31
0.0
  0
LINE
  5
182
102
{ACAD_REACTORS
330
25B
330
25C
102
}
330
71
100
AcDbEntity
  8
0
  6
Continuous
 62
     2
100
AcDbLine
 10
120.1692727264921
 20
334.3680493383781
 30
0.0
 11
120.7704402483839
 21
333.6882260168226
 31
0.0
  0
LINE
  5
183
102
{ACAD_REACTORS
330
25B
330
25C
102
}
330
71
100
AcDbEntity
  8
0
  6
Continuous
 62
     2
100
AcDbLine
 10
120.7704402483839
 20
333.6882260168226
 30
0.0
 11
121.3716077702767
 21
334.3680493383781
 31
0.0
  0
LINE
  5
184
102
{ACAD_REACTORS
330
25B
330
25C
102
}
330
71
100
AcDbEntity
  8
0
  6
Continuous
 62
     2
100
AcDbLine
 10
121.4718023572574
 20
332.8950988083419
 30
0.0
 11
122.7743319880239
 21
334.3680493383781
 31
0.0
  0
LINE
  5
185
102
{ACAD_REACTORS
330
25B
330
25C
102
}
330
71
100
AcDbEntity
  8
0
  6
Continuous
 62
     2
100
AcDbLine
 10
121.4718023572574
 20
332.8950988083419
 30
0.0
 11
122.8697554041977
 21
331.3142398145669
 31
0.0
  0
LINE
  5
186
102
{ACAD_REACTORS
330
25B
330
25C
102
}
330
71
100
AcDbEntity
  8
0
  6
Continuous
 62
     2
100
AcDbLine
 10
121.4670311864494
 20
331.3142398145669
 30
0.0
 11
122.8697554041977
 21
331.3142398145669
 31
0.0
  0
LINE
  5
187
102
{ACAD_REACTORS
330
25B
330
25C
102
}
330
71
100
AcDbEntity
  8
0
  6
Continuous
 62
     2
100
AcDbLine
 10
120.7704402483839
 20
332.1019715998606
 30
0.0
 11
121.4670311864494
 21
331.3142398145669
 31
0.0
  0
LINE
  5
188
102
{ACAD_REACTORS
330
259
330
25A
102
}
330
71
100
AcDbEntity
  8
0
  6
Continuous
 62
     2
100
AcDbLine
 10
117.3113414121002
 20
334.3680493383781
 30
0.0
 11
118.5518458223531
 21
334.3680493383781
 31
0.0
  0
LINE
  5
189
102
{ACAD_REACTORS
330
259
330
25A
102
}
330
71
100
AcDbEntity
  8
0
  6
Continuous
 62
     2
100
AcDbLine
 10
118.5518458223531
 20
334.3680493383781
 30
0.0
 11
118.5518458223531
 21
331.3142398145669
 31
0.0
  0
LINE
  5
18A
102
{ACAD_REACTORS
330
259
330
25A
102
}
330
71
100
AcDbEntity
  8
0
  6
Continuous
 62
     2
100
AcDbLine
 10
117.3113414121002
 20
331.3142398145669
 30
0.0
 11
117.3113414121002
 21
334.3680493383781
 31
0.0
  0
LINE
  5
18B
102
{ACAD_REACTORS
330
257
330
258
102
}
330
71
100
AcDbEntity
  8
0
  6
Continuous
 62
     2
100
AcDbLine
 10
115.8430313295626
 20
329.1765731479171
 30
0.0
 11
116.143196566755
 21
329.9443881139038
 31
0.0
  0
LINE
  5
18C
102
{ACAD_REACTORS
330
257
330
258
102
}
330
71
100
AcDbEntity
  8
0
  6
Continuous
 62
     2
100
AcDbLine
 10
115.3654957249418
 20
327.9550493383926
 30
0.0
 11
115.5769757784176
 21
328.4960098826105
 31
0.0
  0
LINE
  5
18D
102
{ACAD_REACTORS
330
257
330
258
102
}
330
71
100
AcDbEntity
  8
0
  6
Continuous
 62
     2
100
AcDbLine
 10
115.5229443616281
 20
331.0088588622037
 30
0.0
 11
114.1249913146888
 21
327.9550493383926
 31
0.0
  0
LINE
  5
18E
102
{ACAD_REACTORS
330
257
330
258
102
}
330
71
100
AcDbEntity
  8
0
  6
Continuous
 62
     2
100
AcDbLine
 10
118.1614018188211
 20
327.9550493383926
 30
0.0
 11
116.9208974085672
 21
327.9550493383926
 31
0.0
  0
LINE
  5
18F
102
{ACAD_REACTORS
330
257
330
258
102
}
330
71
100
AcDbEntity
  8
0
  6
Continuous
 62
     2
100
AcDbLine
 10
115.5769757784176
 20
328.4960098826105
 30
0.0
 11
116.7094173550914
 21
328.4960098826105
 31
0.0
  0
LINE
  5
190
102
{ACAD_REACTORS
330
255
330
256
102
}
330
71
100
AcDbEntity
  8
0
  6
Continuous
 62
     2
100
AcDbLine
 10
111.9674791755066
 20
330.2235935560801
 30
0.0
 11
112.7785782129812
 21
330.2235935560801
 31
0.0
  0
LINE
  5
191
102
{ACAD_REACTORS
330
255
330
256
102
}
330
71
100
AcDbEntity
  8
0
  6
Continuous
 62
     2
100
AcDbLine
 10
114.7824699526202
 20
331.0088588622037
 30
0.0
 11
111.9674791755066
 21
331.0088588622037
 31
0.0
  0
LINE
  5
192
102
{ACAD_REACTORS
330
255
330
256
102
}
330
71
100
AcDbEntity
  8
0
  6
Continuous
 62
     2
100
AcDbLine
 10
114.7824699526202
 20
330.2235935560801
 30
0.0
 11
114.7824699526202
 21
331.0088588622037
 31
0.0
  0
LINE
  5
193
102
{ACAD_REACTORS
330
255
330
256
102
}
330
71
100
AcDbEntity
  8
0
  6
Continuous
 62
     2
100
AcDbLine
 10
113.9713709151477
 20
330.2235935560801
 30
0.0
 11
114.7824699526202
 21
330.2235935560801
 31
0.0
  0
LINE
  5
194
102
{ACAD_REACTORS
330
255
330
256
102
}
330
71
100
AcDbEntity
  8
0
  6
Continuous
 62
     2
100
AcDbLine
 10
113.9713709151477
 20
327.9550493383926
 30
0.0
 11
113.9713709151477
 21
330.2235935560801
 31
0.0
  0
LINE
  5
195
102
{ACAD_REACTORS
330
253
330
254
102
}
330
71
100
AcDbEntity
  8
0
  6
Continuous
 62
     2
100
AcDbLine
 10
114.6394857592457
 20
331.3142398145669
 30
0.0
 11
114.6394857592457
 21
332.6230153247716
 31
0.0
  0
LINE
  5
196
102
{ACAD_REACTORS
330
253
330
254
102
}
330
71
100
AcDbEntity
  8
0
  6
Continuous
 62
     2
100
AcDbLine
 10
113.4466930570792
 20
334.3680493383781
 30
0.0
 11
113.4466930570792
 21
331.3142398145669
 31
0.0
  0
LINE
  5
197
102
{ACAD_REACTORS
330
253
330
254
102
}
330
71
100
AcDbEntity
  8
0
  6
Continuous
 62
     2
100
AcDbLine
 10
114.6394857592457
 20
334.3680493383781
 30
0.0
 11
113.4466930570792
 21
334.3680493383781
 31
0.0
  0
LINE
  5
198
102
{ACAD_REACTORS
330
253
330
254
102
}
330
71
100
AcDbEntity
  8
0
  6
Continuous
 62
     2
100
AcDbLine
 10
115.8799901694997
 20
334.3680493383781
 30
0.0
 11
115.8799901694997
 21
333.0592738281729
 31
0.0
  0
LINE
  5
199
102
{ACAD_REACTORS
330
251
330
252
102
}
330
71
100
AcDbEntity
  8
0
  6
Continuous
 62
     2
100
AcDbLine
 10
108.1982542366595
 20
331.0088588622037
 30
0.0
 11
108.1982542366595
 21
327.9550493383926
 31
0.0
  0
LINE
  5
19A
102
{ACAD_REACTORS
330
251
330
252
102
}
330
71
100
AcDbEntity
  8
0
  6
Continuous
 62
     2
100
AcDbLine
 10
109.3910469388271
 20
331.0088588622037
 30
0.0
 11
108.1982542366595
 21
331.0088588622037
 31
0.0
  0
LINE
  5
19B
102
{ACAD_REACTORS
330
251
330
252
102
}
330
71
100
AcDbEntity
  8
0
  6
Continuous
 62
     2
100
AcDbLine
 10
110.63155134908
 20
327.9550493383926
 30
0.0
 11
111.8243440512464
 21
327.9550493383926
 31
0.0
  0
LINE
  5
19C
102
{ACAD_REACTORS
330
251
330
252
102
}
330
71
100
AcDbEntity
  8
0
  6
Continuous
 62
     2
100
AcDbLine
 10
108.1982542366595
 20
327.9550493383926
 30
0.0
 11
109.3910469388271
 21
327.9550493383926
 31
0.0
  0
LINE
  5
19D
102
{ACAD_REACTORS
330
261
330
262
102
}
330
71
100
AcDbEntity
  8
0
  6
Continuous
 62
     2
100
AcDbLine
 10
111.8722066902186
 20
333.1901513791934
 30
0.0
 11
111.8722066902186
 21
333.6700357329351
 31
0.0
  0
LINE
  5
19E
102
{ACAD_REACTORS
330
261
330
262
102
}
330
71
100
AcDbEntity
  8
0
  6
Continuous
 62
     2
100
AcDbLine
 10
113.2081345166463
 20
333.1901513791934
 30
0.0
 11
111.8722066902186
 21
333.1901513791934
 31
0.0
  0
LINE
  5
19F
102
{ACAD_REACTORS
330
261
330
262
102
}
330
71
100
AcDbEntity
  8
0
  6
Continuous
 62
     2
100
AcDbLine
 10
113.2081345166463
 20
332.4921377737511
 30
0.0
 11
113.2081345166463
 21
333.1901513791934
 31
0.0
  0
LINE
  5
1A0
102
{ACAD_REACTORS
330
261
330
262
102
}
330
71
100
AcDbEntity
  8
0
  6
Continuous
 62
     2
100
AcDbLine
 10
111.8722066902186
 20
332.4921377737511
 30
0.0
 11
113.2081345166463
 21
332.4921377737511
 31
0.0
  0
LINE
  5
1A1
102
{ACAD_REACTORS
330
24F
330
250
102
}
330
71
100
AcDbEntity
  8
0
  6
Continuous
 62
     2
100
AcDbLine
 10
108.3892519998917
 20
334.3680493383781
 30
0.0
 11
108.3892519998917
 21
331.3142398145669
 31
0.0
  0
LINE
  5
1A2
102
{ACAD_REACTORS
330
24F
330
250
102
}
330
71
100
AcDbEntity
  8
0
  6
Continuous
 62
     2
100
AcDbLine
 10
108.3892519998917
 20
331.3142398145669
 30
0.0
 11
107.1964592977253
 21
331.3142398145669
 31
0.0
  0
LINE
  5
1A3
102
{ACAD_REACTORS
330
24F
330
250
102
}
330
71
100
AcDbEntity
  8
0
  6
Continuous
 62
     2
100
AcDbLine
 10
107.1964592977253
 20
331.3142398145669
 30
0.0
 11
107.1964592977253
 21
332.4485119234107
 31
0.0
  0
LINE
  5
1A4
102
{ACAD_REACTORS
330
24F
330
250
102
}
330
71
100
AcDbEntity
  8
0
  6
Continuous
 62
     2
100
AcDbLine
 10
106.1468017198178
 20
331.3142398145669
 30
0.0
 11
104.9540090176512
 21
331.3142398145669
 31
0.0
  0
LINE
  5
1A5
102
{ACAD_REACTORS
330
24F
330
250
102
}
330
71
100
AcDbEntity
  8
0
  6
Continuous
 62
     2
100
AcDbLine
 10
104.9540090176512
 20
334.3680493383781
 30
0.0
 11
106.1468017198178
 21
334.3680493383781
 31
0.0
  0
LINE
  5
1A6
102
{ACAD_REACTORS
330
24F
330
250
102
}
330
71
100
AcDbEntity
  8
0
  6
Continuous
 62
     2
100
AcDbLine
 10
106.1468017198178
 20
334.3680493383781
 30
0.0
 11
106.1468017198178
 21
333.2992160050435
 31
0.0
  0
LINE
  5
1A7
102
{ACAD_REACTORS
330
24F
330
250
102
}
330
71
100
AcDbEntity
  8
0
  6
Continuous
 62
     2
100
AcDbLine
 10
106.1468017198178
 20
333.2992160050435
 30
0.0
 11
107.1964592977253
 21
333.2992160050435
 31
0.0
  0
LINE
  5
1A8
102
{ACAD_REACTORS
330
25D
330
25E
102
}
330
71
100
AcDbEntity
  8
0
  6
Continuous
 62
     2
100
AcDbLine
 10
102.9978289860976
 20
333.704943492938
 30
0.0
 11
103.3151240476395
 21
333.704943492938
 31
0.0
  0
LINE
  5
1A9
102
{ACAD_REACTORS
330
25D
330
25E
102
}
330
71
100
AcDbEntity
  8
0
  6
Continuous
 62
     2
100
AcDbLine
 10
102.9978289860976
 20
332.9992158435958
 30
0.0
 11
103.3151240476395
 21
332.9992158435958
 31
0.0
  0
LINE
  5
1AA
102
{ACAD_REACTORS
330
25D
330
25E
102
}
330
71
100
AcDbEntity
  8
0
  6
Continuous
 62
     2
100
AcDbLine
 10
101.7573245758435
 20
334.3680493383781
 30
0.0
 11
101.7573245758435
 21
331.3142398145669
 31
0.0
  0
LINE
  5
1AB
102
{ACAD_REACTORS
330
25D
330
25E
102
}
330
71
100
AcDbEntity
  8
0
  6
Continuous
 62
     2
100
AcDbLine
 10
101.7573245758435
 20
334.3680493383781
 30
0.0
 11
103.7565965738779
 21
334.3680493383781
 31
0.0
  0
LINE
  5
1AC
102
{ACAD_REACTORS
330
25D
330
25E
102
}
330
71
100
AcDbEntity
  8
0
  6
Continuous
 62
     2
100
AcDbLine
 10
102.9978289860976
 20
332.2573180557107
 30
0.0
 11
103.7565965738779
 21
332.2573180557107
 31
0.0
  0
LINE
  5
1AD
102
{ACAD_REACTORS
330
263
330
264
102
}
330
71
100
AcDbEntity
  8
0
  6
Continuous
 62
     2
100
AcDbLine
 10
95.6608285425468
 20
333.3397768597433
 30
0.0
 11
95.6608285425468
 21
328.9833218170262
 31
0.0
  0
LINE
  5
1AE
102
{ACAD_REACTORS
330
263
330
264
102
}
330
71
100
AcDbEntity
  8
0
  6
Continuous
 62
     2
100
AcDbLine
 10
95.97654546562248
 20
333.6554937828195
 30
0.0
 11
97.4523787266321
 21
333.6554937828195
 31
0.0
  0
LINE
  5
1AF
102
{ACAD_REACTORS
330
263
330
264
102
}
330
71
100
AcDbEntity
  8
0
  6
Continuous
 62
     2
100
AcDbLine
 10
97.7680956497087
 20
332.7357522406828
 30
0.0
 11
97.7680956497087
 21
333.3397768597433
 31
0.0
  0
LINE
  5
1B0
102
{ACAD_REACTORS
330
263
330
264
102
}
330
71
100
AcDbEntity
  8
0
  6
Continuous
 62
     2
100
AcDbLine
 10
97.7680956497087
 20
328.9833218170262
 30
0.0
 11
97.7680956497087
 21
330.5140927485578
 31
0.0
  0
LINE
  5
1B1
102
{ACAD_REACTORS
330
263
330
264
102
}
330
71
100
AcDbEntity
  8
0
  6
Continuous
 62
     2
100
AcDbLine
 10
100.8559628795928
 20
327.9550493383926
 30
0.0
 11
95.38265078887599
 21
327.9550493383926
 31
0.0
  0
LINE
  5
1B2
102
{ACAD_REACTORS
330
263
330
264
102
}
330
71
100
AcDbEntity
  8
0
  6
Continuous
 62
     2
100
AcDbLine
 10
101.2802074949767
 20
333.9438047229761
 30
0.0
 11
101.2802074949767
 21
328.3792939537759
 31
0.0
  0
LINE
  5
1B3
102
{ACAD_REACTORS
330
263
330
264
102
}
330
71
100
AcDbEntity
  8
0
  6
Continuous
 62
     2
100
AcDbLine
 10
95.38265078887599
 20
334.3680493383599
 30
0.0
 11
100.8559628795928
 21
334.3680493383599
 31
0.0
  0
LINE
  5
1B4
102
{ACAD_REACTORS
330
263
330
264
102
}
330
71
100
AcDbEntity
  8
0
  6
Continuous
 62
     2
100
AcDbLine
 10
94.95840617349319
 20
333.9438047229761
 30
0.0
 11
94.95840617349319
 21
328.3792939537759
 31
0.0
  0
LINE
  5
1B5
102
{ACAD_REACTORS
330
263
330
264
102
}
330
71
100
AcDbEntity
  8
0
  6
Continuous
 62
     2
100
AcDbLine
 10
97.4523787266321
 20
328.6676048939495
 30
0.0
 11
95.97654546562248
 21
328.6676048939495
 31
0.0
  0
LINE
  5
1B6
102
{ACAD_REACTORS
330
25D
330
25E
102
}
330
71
100
AcDbEntity
  8
0
  6
Continuous
 62
     2
100
AcDbLine
 10
102.9978289860976
 20
331.3142398145669
 30
0.0
 11
102.9978289860976
 21
332.2573180557107
 31
0.0
  0
LINE
  5
1B7
102
{ACAD_REACTORS
330
25D
330
25E
102
}
330
71
100
AcDbEntity
  8
0
  6
Continuous
 62
     2
100
AcDbLine
 10
101.7573245758435
 20
331.3142398145669
 30
0.0
 11
102.9978289860976
 21
331.3142398145669
 31
0.0
  0
LINE
  5
1B8
102
{ACAD_REACTORS
330
25D
330
25E
102
}
330
71
100
AcDbEntity
  8
0
  6
Continuous
 62
     2
100
AcDbLine
 10
102.9978289860976
 20
332.9992158435958
 30
0.0
 11
102.9978289860976
 21
333.704943492938
 31
0.0
  0
LINE
  5
1B9
102
{ACAD_REACTORS
330
24F
330
250
102
}
330
71
100
AcDbEntity
  8
0
  6
Continuous
 62
     2
100
AcDbLine
 10
104.9540090176512
 20
334.3680493383781
 30
0.0
 11
104.9540090176512
 21
331.3142398145669
 31
0.0
  0
LINE
  5
1BA
102
{ACAD_REACTORS
330
24F
330
250
102
}
330
71
100
AcDbEntity
  8
0
  6
Continuous
 62
     2
100
AcDbLine
 10
106.1468017198178
 20
332.4485119234107
 30
0.0
 11
106.1468017198178
 21
331.3142398145669
 31
0.0
  0
LINE
  5
1BB
102
{ACAD_REACTORS
330
24F
330
250
102
}
330
71
100
AcDbEntity
  8
0
  6
Continuous
 62
     2
100
AcDbLine
 10
107.1964592977253
 20
332.4485119234107
 30
0.0
 11
106.1468017198178
 21
332.4485119234107
 31
0.0
  0
LINE
  5
1BC
102
{ACAD_REACTORS
330
24F
330
250
102
}
330
71
100
AcDbEntity
  8
0
  6
Continuous
 62
     2
100
AcDbLine
 10
107.1964592977253
 20
334.3680493383781
 30
0.0
 11
108.3892519998917
 21
334.3680493383781
 31
0.0
  0
LINE
  5
1BD
102
{ACAD_REACTORS
330
24F
330
250
102
}
330
71
100
AcDbEntity
  8
0
  6
Continuous
 62
     2
100
AcDbLine
 10
107.1964592977253
 20
333.2992160050435
 30
0.0
 11
107.1964592977253
 21
334.3680493383781
 31
0.0
  0
LINE
  5
1BE
102
{ACAD_REACTORS
330
261
330
262
102
}
330
71
100
AcDbEntity
  8
0
  6
Continuous
 62
     2
100
AcDbLine
 10
113.2081345166463
 20
333.6700357329351
 30
0.0
 11
113.2081345166463
 21
334.3680493383781
 31
0.0
  0
LINE
  5
1BF
102
{ACAD_REACTORS
330
261
330
262
102
}
330
71
100
AcDbEntity
  8
0
  6
Continuous
 62
     2
100
AcDbLine
 10
110.0578147928653
 20
334.3680493383781
 30
0.0
 11
113.2081345166463
 21
334.3680493383781
 31
0.0
  0
LINE
  5
1C0
102
{ACAD_REACTORS
330
261
330
262
102
}
330
71
100
AcDbEntity
  8
0
  6
Continuous
 62
     2
100
AcDbLine
 10
110.0578147928653
 20
331.3142398145669
 30
0.0
 11
113.2081345166463
 21
331.3142398145669
 31
0.0
  0
LINE
  5
1C1
102
{ACAD_REACTORS
330
261
330
262
102
}
330
71
100
AcDbEntity
  8
0
  6
Continuous
 62
     2
100
AcDbLine
 10
113.2081345166463
 20
331.3142398145669
 30
0.0
 11
113.2081345166463
 21
332.0122534200094
 31
0.0
  0
LINE
  5
1C2
102
{ACAD_REACTORS
330
261
330
262
102
}
330
71
100
AcDbEntity
  8
0
  6
Continuous
 62
     2
100
AcDbLine
 10
113.2081345166463
 20
332.0122534200094
 30
0.0
 11
111.8722066902186
 21
332.0122534200094
 31
0.0
  0
LINE
  5
1C3
102
{ACAD_REACTORS
330
261
330
262
102
}
330
71
100
AcDbEntity
  8
0
  6
Continuous
 62
     2
100
AcDbLine
 10
111.8722066902186
 20
332.0122534200094
 30
0.0
 11
111.8722066902186
 21
332.4921377737511
 31
0.0
  0
LINE
  5
1C4
102
{ACAD_REACTORS
330
261
330
262
102
}
330
71
100
AcDbEntity
  8
0
  6
Continuous
 62
     2
100
AcDbLine
 10
111.8722066902186
 20
333.6700357329351
 30
0.0
 11
113.2081345166463
 21
333.6700357329351
 31
0.0
  0
LINE
  5
1C5
102
{ACAD_REACTORS
330
251
330
252
102
}
330
71
100
AcDbEntity
  8
0
  6
Continuous
 62
     2
100
AcDbLine
 10
109.3910469388271
 20
327.9550493383926
 30
0.0
 11
109.3910469388271
 21
329.2638248485972
 31
0.0
  0
LINE
  5
1C6
102
{ACAD_REACTORS
330
251
330
252
102
}
330
71
100
AcDbEntity
  8
0
  6
Continuous
 62
     2
100
AcDbLine
 10
109.3910469388271
 20
329.2638248485972
 30
0.0
 11
110.63155134908
 21
327.9550493383926
 31
0.0
  0
LINE
  5
1C7
102
{ACAD_REACTORS
330
251
330
252
102
}
330
71
100
AcDbEntity
  8
0
  6
Continuous
 62
     2
100
AcDbLine
 10
111.8243440512464
 20
327.9550493383926
 30
0.0
 11
111.8243440512464
 21
331.0088588622037
 31
0.0
  0
LINE
  5
1C8
102
{ACAD_REACTORS
330
251
330
252
102
}
330
71
100
AcDbEntity
  8
0
  6
Continuous
 62
     2
100
AcDbLine
 10
111.8243440512464
 20
331.0088588622037
 30
0.0
 11
110.63155134908
 21
331.0088588622037
 31
0.0
  0
LINE
  5
1C9
102
{ACAD_REACTORS
330
251
330
252
102
}
330
71
100
AcDbEntity
  8
0
  6
Continuous
 62
     2
100
AcDbLine
 10
110.63155134908
 20
331.0088588622037
 30
0.0
 11
110.63155134908
 21
329.7000833519986
 31
0.0
  0
LINE
  5
1CA
102
{ACAD_REACTORS
330
251
330
252
102
}
330
71
100
AcDbEntity
  8
0
  6
Continuous
 62
     2
100
AcDbLine
 10
110.63155134908
 20
329.7000833519986
 30
0.0
 11
109.3910469388271
 21
331.0088588622037
 31
0.0
  0
LINE
  5
1CB
102
{ACAD_REACTORS
330
253
330
254
102
}
330
71
100
AcDbEntity
  8
0
  6
Continuous
 62
     2
100
AcDbLine
 10
114.6394857592457
 20
332.6230153247716
 30
0.0
 11
115.8799901694997
 21
331.3142398145669
 31
0.0
  0
LINE
  5
1CC
102
{ACAD_REACTORS
330
253
330
254
102
}
330
71
100
AcDbEntity
  8
0
  6
Continuous
 62
     2
100
AcDbLine
 10
115.8799901694997
 20
331.3142398145669
 30
0.0
 11
117.0727828716663
 21
331.3142398145669
 31
0.0
  0
LINE
  5
1CD
102
{ACAD_REACTORS
330
253
330
254
102
}
330
71
100
AcDbEntity
  8
0
  6
Continuous
 62
     2
100
AcDbLine
 10
117.0727828716663
 20
331.3142398145669
 30
0.0
 11
117.0727828716663
 21
334.3680493383781
 31
0.0
  0
LINE
  5
1CE
102
{ACAD_REACTORS
330
253
330
254
102
}
330
71
100
AcDbEntity
  8
0
  6
Continuous
 62
     2
100
AcDbLine
 10
117.0727828716663
 20
334.3680493383781
 30
0.0
 11
115.8799901694997
 21
334.3680493383781
 31
0.0
  0
LINE
  5
1CF
102
{ACAD_REACTORS
330
253
330
254
102
}
330
71
100
AcDbEntity
  8
0
  6
Continuous
 62
     2
100
AcDbLine
 10
115.8799901694997
 20
333.0592738281729
 30
0.0
 11
114.6394857592457
 21
334.3680493383781
 31
0.0
  0
LINE
  5
1D0
102
{ACAD_REACTORS
330
253
330
254
102
}
330
71
100
AcDbEntity
  8
0
  6
Continuous
 62
     2
100
AcDbLine
 10
113.4466930570792
 20
331.3142398145669
 30
0.0
 11
114.6394857592457
 21
331.3142398145669
 31
0.0
  0
LINE
  5
1D1
102
{ACAD_REACTORS
330
255
330
256
102
}
330
71
100
AcDbEntity
  8
0
  6
Continuous
 62
     2
100
AcDbLine
 10
111.9674791755066
 20
331.0088588622037
 30
0.0
 11
111.9674791755066
 21
330.2235935560801
 31
0.0
  0
LINE
  5
1D2
102
{ACAD_REACTORS
330
255
330
256
102
}
330
71
100
AcDbEntity
  8
0
  6
Continuous
 62
     2
100
AcDbLine
 10
112.7785782129812
 20
330.2235935560801
 30
0.0
 11
112.7785782129812
 21
327.9550493383926
 31
0.0
  0
LINE
  5
1D3
102
{ACAD_REACTORS
330
255
330
256
102
}
330
71
100
AcDbEntity
  8
0
  6
Continuous
 62
     2
100
AcDbLine
 10
112.7785782129812
 20
327.9550493383926
 30
0.0
 11
113.9713709151477
 21
327.9550493383926
 31
0.0
  0
LINE
  5
1D4
102
{ACAD_REACTORS
330
257
330
258
102
}
330
71
100
AcDbEntity
  8
0
  6
Continuous
 62
     2
100
AcDbLine
 10
116.9208974085672
 20
327.9550493383926
 30
0.0
 11
116.7094173550914
 21
328.4960098826105
 31
0.0
  0
LINE
  5
1D5
102
{ACAD_REACTORS
330
257
330
258
102
}
330
71
100
AcDbEntity
  8
0
  6
Continuous
 62
     2
100
AcDbLine
 10
116.7634487718808
 20
331.0088588622037
 30
0.0
 11
118.1614018188211
 21
327.9550493383926
 31
0.0
  0
LINE
  5
1D6
102
{ACAD_REACTORS
330
257
330
258
102
}
330
71
100
AcDbEntity
  8
0
  6
Continuous
 62
     2
100
AcDbLine
 10
115.5229443616281
 20
331.0088588622037
 30
0.0
 11
116.7634487718808
 21
331.0088588622037
 31
0.0
  0
LINE
  5
1D7
102
{ACAD_REACTORS
330
257
330
258
102
}
330
71
100
AcDbEntity
  8
0
  6
Continuous
 62
     2
100
AcDbLine
 10
114.1249913146888
 20
327.9550493383926
 30
0.0
 11
115.3654957249418
 21
327.9550493383926
 31
0.0
  0
LINE
  5
1D8
102
{ACAD_REACTORS
330
257
330
258
102
}
330
71
100
AcDbEntity
  8
0
  6
Continuous
 62
     2
100
AcDbLine
 10
115.8430313295626
 20
329.1765731479171
 30
0.0
 11
116.4433618039451
 21
329.1765731479171
 31
0.0
  0
LINE
  5
1D9
102
{ACAD_REACTORS
330
257
330
258
102
}
330
71
100
AcDbEntity
  8
0
  6
Continuous
 62
     2
100
AcDbLine
 10
116.4433618039451
 20
329.1765731479171
 30
0.0
 11
116.143196566755
 21
329.9443881139038
 31
0.0
  0
LINE
  5
1DA
102
{ACAD_REACTORS
330
259
330
25A
102
}
330
71
100
AcDbEntity
  8
0
  6
Continuous
 62
     2
100
AcDbLine
 10
118.5518458223531
 20
331.3142398145669
 30
0.0
 11
117.3113414121002
 21
331.3142398145669
 31
0.0
  0
LINE
  5
1DB
102
{ACAD_REACTORS
330
25B
330
25C
102
}
330
71
100
AcDbEntity
  8
0
  6
Continuous
 62
     2
100
AcDbLine
 10
120.0738493103182
 20
331.3142398145669
 30
0.0
 11
118.67112509257
 21
331.3142398145669
 31
0.0
  0
LINE
  5
1DC
102
{ACAD_REACTORS
330
25B
330
25C
102
}
330
71
100
AcDbEntity
  8
0
  6
Continuous
 62
     2
100
AcDbLine
 10
120.0738493103182
 20
331.3142398145669
 30
0.0
 11
120.7704402483839
 21
332.1019715998606
 31
0.0
  0
LINE
  5
1DD
102
{ACAD_REACTORS
330
25B
330
25C
102
}
330
71
100
AcDbEntity
  8
0
  6
Continuous
 62
     2
100
AcDbLine
 10
121.3716077702767
 20
334.3680493383781
 30
0.0
 11
122.7743319880239
 21
334.3680493383781
 31
0.0
  0
LINE
  5
1DE
102
{ACAD_REACTORS
330
25B
330
25C
102
}
330
71
100
AcDbEntity
  8
0
  6
Continuous
 62
     2
100
AcDbLine
 10
118.7665485087428
 20
334.3680493383781
 30
0.0
 11
120.0690781395103
 21
332.8950988083419
 31
0.0
  0
LINE
  5
1DF
102
{ACAD_REACTORS
330
25B
330
25C
102
}
330
71
100
AcDbEntity
  8
0
  6
Continuous
 62
     2
100
AcDbLine
 10
118.67112509257
 20
331.3142398145669
 30
0.0
 11
120.0690781395103
 21
332.8950988083419
 31
0.0
  0
LINE
  5
1E0
102
{ACAD_REACTORS
330
265
330
266
102
}
330
71
100
AcDbEntity
  8
0
  6
Continuous
 62
     2
100
AcDbLine
 10
120.5318817079499
 20
329.0020697465562
 30
0.0
 11
120.5318817079499
 21
328.1295527397529
 31
0.0
  0
LINE
  5
1E1
102
{ACAD_REACTORS
330
265
330
266
102
}
330
71
100
AcDbEntity
  8
0
  6
Continuous
 62
     2
100
AcDbLine
 10
119.7622243649885
 20
330.2235935560801
 30
0.0
 11
120.8658636645566
 21
330.2235935560801
 31
0.0
  0
LINE
  5
1E2
102
{ACAD_REACTORS
330
267
330
268
102
}
330
71
100
AcDbEntity
  8
0
  6
Continuous
 62
     2
100
AcDbLine
 10
104.429180228698
 20
329.0020697465567
 30
0.0
 11
104.429180228698
 21
328.1295527397535
 31
0.0
  0
LINE
  5
1E3
102
{ACAD_REACTORS
330
267
330
268
102
}
330
71
100
AcDbEntity
  8
0
  6
Continuous
 62
     2
100
AcDbLine
 10
104.429180228698
 20
329.9618384540396
 30
0.0
 11
104.429180228698
 21
330.8343554608429
 31
0.0
  0
LINE
  5
1E4
330
71
100
AcDbEntity
  8
1
  6
Continuous
 62
     7
100
AcDbLine
 10
220.2665558136819
 20
329.1615493383763
 30
0.0
 11
127.1217512869305
 21
329.1615493383763
 31
0.0
  0
LINE
  5
1E5
330
71
100
AcDbEntity
  8
1
  6
Continuous
 62
     6
100
AcDbLine
 10
21.72175128693061
 20
320.6615493383763
 30
0.0
 11
-23.23344418631939
 21
320.6615493383763
 31
0.0
  0
LINE
  5
1E6
330
71
100
AcDbEntity
  8
1
  6
Continuous
 62
     7
100
AcDbLine
 10
211.3481475320031
 20
346.1615493383763
 30
0.0
 11
211.3481475320031
 21
337.6615493383763
 31
0.0
  0
LINE
  5
1E7
330
71
100
AcDbEntity
  8
1
  6
Continuous
 62
     7
100
AcDbLine
 10
184.8481475320035
 20
346.1615493383763
 30
0.0
 11
184.8481475320035
 21
337.6615493383763
 31
0.0
  0
LINE
  5
1E8
330
71
100
AcDbEntity
  8
1
  6
Continuous
 62
     7
100
AcDbLine
 10
127.1217512869305
 20
337.6615493383763
 30
0.0
 11
127.1217512869305
 21
346.1615493383763
 31
0.0
  0
LINE
  5
1E9
330
71
100
AcDbEntity
  8
1
  6
Continuous
 62
     7
100
AcDbLine
 10
90.72175128693058
 20
337.6615493383763
 30
0.0
 11
90.72175128693058
 21
346.1615493383763
 31
0.0
  0
LINE
  5
1EA
330
71
100
AcDbEntity
  8
1
  6
Continuous
 62
     6
100
AcDbLine
 10
127.1217512869305
 20
337.6615493383763
 30
0.0
 11
220.2665558136823
 21
337.6615493383763
 31
0.0
  0
LINE
  5
1EB
330
71
100
AcDbEntity
  8
1
  6
Continuous
 62
     7
100
AcDbLine
 10
155.0217512869306
 20
329.1615493383762
 30
0.0
 11
155.0217512869306
 21
337.6615493383763
 31
0.0
  0
LINE
  5
1EC
330
71
100
AcDbEntity
  8
1
  6
PHANTOM
 62
     2
100
AcDbLine
 10
106.2084061734932
 20
341.7865493383762
 30
0.0
 11
100.7084061734932
 21
341.7865493383762
 31
0.0
  0
LINE
  5
1ED
330
71
100
AcDbEntity
  8
1
  6
PHANTOM
 62
     2
100
AcDbLine
 10
103.4584061734932
 20
344.5365493383762
 30
0.0
 11
103.4584061734932
 21
339.0365493383762
 31
0.0
  0
LINE
  5
1EE
330
71
100
AcDbEntity
  8
1
  6
DOT_CENTER
 62
     2
100
AcDbLine
 10
94.70840617349319
 20
341.7865493383762
 30
0.0
 11
100.2084061734932
 21
341.7865493383762
 31
0.0
  0
ARC
  5
1EF
102
{ACAD_REACTORS
330
267
330
268
102
}
330
71
100
AcDbEntity
  8
0
  6
Continuous
 62
     2
100
AcDbCircle
 10
103.0932523115802
 20
326.169273155042
 30
0.0
 40
4.852596863498095
100
AcDbArc
 50
74.02000874164747
 51
84.84185523037509
  0
ARC
  5
1F0
102
{ACAD_REACTORS
330
267
330
268
102
}
330
71
100
AcDbEntity
  8
0
  6
Continuous
 62
     2
100
AcDbCircle
 10
103.6692929203339
 20
329.3250335109263
 30
0.0
 40
0.9059297849853273
100
AcDbArc
 50
71.55192388185262
 51
113.372277888129
  0
ARC
  5
1F1
102
{ACAD_REACTORS
330
267
330
268
102
}
330
71
100
AcDbEntity
  8
0
  6
Continuous
 62
     2
100
AcDbCircle
 10
103.5128528876319
 20
329.2768826709594
 30
0.0
 40
0.5115800601948034
100
AcDbArc
 50
208.5214732576956
 51
246.6277221118259
  0
ARC
  5
1F2
102
{ACAD_REACTORS
330
267
330
268
102
}
330
71
100
AcDbEntity
  8
0
  6
Continuous
 62
     2
100
AcDbCircle
 10
103.6692929203339
 20
329.6388746896694
 30
0.0
 40
0.9059297849849192
100
AcDbArc
 50
246.627722111871
 51
288.4480761181587
  0
ARC
  5
1F3
102
{ACAD_REACTORS
330
267
330
268
102
}
330
71
100
AcDbEntity
  8
0
  6
Continuous
 62
     2
100
AcDbCircle
 10
103.2511251866731
 20
330.8924204657066
 30
0.0
 40
2.227384008972773
100
AcDbArc
 50
288.4480761181333
 51
301.9309089499595
  0
ARC
  5
1F4
102
{ACAD_REACTORS
330
263
330
264
102
}
330
71
100
AcDbEntity
  8
0
  6
Continuous
 62
     2
100
AcDbCircle
 10
98.0260514540663
 20
331.6249224946206
 30
0.0
 40
0.9118481501444333
100
AcDbArc
 50
295.3740086781772
 51
64.62599132180748
  0
ARC
  5
1F5
102
{ACAD_REACTORS
330
263
330
264
102
}
330
71
100
AcDbEntity
  8
0
  6
Continuous
 62
     2
100
AcDbCircle
 10
98.55209415215418
 20
333.3395993830952
 30
0.0
 40
0.3157169230760711
100
AcDbArc
 50
90.18896704254594
 51
180.0
  0
ARC
  5
1F6
102
{ACAD_REACTORS
330
265
330
266
102
}
330
71
100
AcDbEntity
  8
0
  6
Continuous
 62
     2
100
AcDbCircle
 10
119.7622243649885
 20
329.269070549254
 30
0.0
 40
0.9545230068260935
100
AcDbArc
 50
90.0
 51
109.3371432194312
  0
ARC
  5
1F7
102
{ACAD_REACTORS
330
265
330
266
102
}
330
71
100
AcDbEntity
  8
0
  6
Continuous
 62
     2
100
AcDbCircle
 10
119.9929116249662
 20
329.4819541002979
 30
0.0
 40
0.9410597353348789
100
AcDbArc
 50
151.478526742364
 51
208.5214732576695
  0
ARC
  5
1F8
102
{ACAD_REACTORS
330
265
330
266
102
}
330
71
100
AcDbEntity
  8
0
  6
Continuous
 62
     2
100
AcDbCircle
 10
119.7719943995879
 20
329.6388746896694
 30
0.0
 40
0.9059297849852744
100
AcDbArc
 50
246.6277221118191
 51
288.4480761180806
  0
ARC
  5
1F9
102
{ACAD_REACTORS
330
265
330
266
102
}
330
71
100
AcDbEntity
  8
0
  6
Continuous
 62
     2
100
AcDbCircle
 10
119.353826665926
 20
330.892420465706
 30
0.0
 40
2.227384008972773
100
AcDbArc
 50
288.4480761181333
 51
301.9309089499394
  0
ARC
  5
1FA
102
{ACAD_REACTORS
330
265
330
266
102
}
330
71
100
AcDbEntity
  8
0
  6
Continuous
 62
     2
100
AcDbCircle
 10
119.1959537908332
 20
332.7946350455543
 30
0.0
 40
4.852596863498824
100
AcDbArc
 50
275.1581447696362
 51
285.9799912583386
  0
ARC
  5
1FB
102
{ACAD_REACTORS
330
265
330
266
102
}
330
71
100
AcDbEntity
  8
0
  6
Continuous
 62
     2
100
AcDbCircle
 10
119.484809885569
 20
329.5947444623327
 30
0.0
 40
1.639695123940434
100
AcDbArc
 50
195.0618917771014
 51
275.1581447696762
  0
ARC
  5
1FC
102
{ACAD_REACTORS
330
25D
330
25E
102
}
330
71
100
AcDbEntity
  8
0
  6
Continuous
 62
     2
100
AcDbCircle
 10
103.7565965738779
 20
333.3126836970444
 30
0.0
 40
1.055365641333708
100
AcDbArc
 50
270.0
 51
90.0
  0
ARC
  5
1FD
102
{ACAD_REACTORS
330
263
330
264
102
}
330
71
100
AcDbEntity
  8
0
  6
Continuous
 62
     2
100
AcDbCircle
 10
95.97654546562248
 20
328.9833218170262
 30
0.0
 40
0.3157169230756836
100
AcDbArc
 50
180.0
 51
270.0
  0
ARC
  5
1FE
102
{ACAD_REACTORS
330
263
330
264
102
}
330
71
100
AcDbEntity
  8
0
  6
Continuous
 62
     2
100
AcDbCircle
 10
97.4523787266321
 20
333.3397768597433
 30
0.0
 40
0.315716923076593
100
AcDbArc
 50
0.0
 51
90.0
  0
ARC
  5
1FF
102
{ACAD_REACTORS
330
263
330
264
102
}
330
71
100
AcDbEntity
  8
0
  6
Continuous
 62
     2
100
AcDbCircle
 10
97.4523787266321
 20
332.7357522406828
 30
0.0
 40
0.3157169230761717
100
AcDbArc
 50
295.1944106485354
 51
0.0
  0
ARC
  5
200
102
{ACAD_REACTORS
330
263
330
264
102
}
330
71
100
AcDbEntity
  8
0
  6
Continuous
 62
     2
100
AcDbCircle
 10
97.4523787266321
 20
328.9833218170262
 30
0.0
 40
0.3157169230767067
100
AcDbArc
 50
270.0
 51
0.0
  0
ARC
  5
201
102
{ACAD_REACTORS
330
263
330
264
102
}
330
71
100
AcDbEntity
  8
0
  6
Continuous
 62
     2
100
AcDbCircle
 10
95.38265078887599
 20
333.9438047229761
 30
0.0
 40
0.4242446153838273
100
AcDbArc
 50
90.0
 51
180.0
  0
ARC
  5
202
102
{ACAD_REACTORS
330
263
330
264
102
}
330
71
100
AcDbEntity
  8
0
  6
Continuous
 62
     2
100
AcDbCircle
 10
100.8559628795928
 20
333.9438047229761
 30
0.0
 40
0.4242446153838983
100
AcDbArc
 50
0.0
 51
90.0
  0
ARC
  5
203
102
{ACAD_REACTORS
330
263
330
264
102
}
330
71
100
AcDbEntity
  8
0
  6
Continuous
 62
     2
100
AcDbCircle
 10
100.8559628795928
 20
328.3792939537759
 30
0.0
 40
0.4242446153833157
100
AcDbArc
 50
270.0
 51
0.0
  0
ARC
  5
204
102
{ACAD_REACTORS
330
261
330
262
102
}
330
71
100
AcDbEntity
  8
0
  6
Continuous
 62
     2
100
AcDbCircle
 10
110.0743467666843
 20
332.8411445764722
 30
0.0
 40
0.7717997786796135
100
AcDbArc
 50
321.8795802028478
 51
38.12041979716224
  0
ARC
  5
205
102
{ACAD_REACTORS
330
261
330
262
102
}
330
71
100
AcDbEntity
  8
0
  6
Continuous
 62
     2
100
AcDbCircle
 10
110.2740868030305
 20
332.6844133983518
 30
0.0
 40
0.5179085730134483
100
AcDbArc
 50
218.1204197971501
 51
321.8795802028566
  0
ARC
  5
206
102
{ACAD_REACTORS
330
25F
330
260
102
}
330
71
100
AcDbEntity
  8
0
  6
Continuous
 62
     2
100
AcDbCircle
 10
106.5940792140703
 20
329.4819541002979
 30
0.0
 40
1.458034083652028
100
AcDbArc
 50
297.5481481757005
 51
62.45185182429842
  0
ARC
  5
207
102
{ACAD_REACTORS
330
25F
330
260
102
}
330
71
100
AcDbEntity
  8
0
  6
Continuous
 62
     2
100
AcDbCircle
 10
106.0321994304037
 20
329.4819541002979
 30
0.0
 40
1.458034083651465
100
AcDbArc
 50
117.548148175663
 51
242.451851824338
  0
ARC
  5
208
102
{ACAD_REACTORS
330
25F
330
260
102
}
330
71
100
AcDbEntity
  8
0
  6
Continuous
 62
     2
100
AcDbCircle
 10
106.313139322237
 20
328.9433790899951
 30
0.0
 40
2.065479772208543
100
AcDbArc
 50
62.451851824306
 51
117.5481481756671
  0
ARC
  5
209
102
{ACAD_REACTORS
330
25F
330
260
102
}
330
71
100
AcDbEntity
  8
0
  6
Continuous
 62
     2
100
AcDbCircle
 10
106.313139322237
 20
330.0205291106012
 30
0.0
 40
2.065479772208541
100
AcDbArc
 50
242.4518518243402
 51
297.5481481756867
  0
ARC
  5
20A
102
{ACAD_REACTORS
330
261
330
262
102
}
330
71
100
AcDbEntity
  8
0
  6
Continuous
 62
     2
100
AcDbCircle
 10
110.4738268393768
 20
332.8411445764722
 30
0.0
 40
0.7717997786797187
100
AcDbArc
 50
141.8795802028378
 51
218.1204197971522
  0
ARC
  5
20B
102
{ACAD_REACTORS
330
261
330
262
102
}
330
71
100
AcDbEntity
  8
0
  6
Continuous
 62
     2
100
AcDbCircle
 10
110.2740868030305
 20
332.9978757545927
 30
0.0
 40
0.5179085730135266
100
AcDbArc
 50
38.12041979714334
 51
141.8795802028499
  0
ARC
  5
20C
102
{ACAD_REACTORS
330
263
330
264
102
}
330
71
100
AcDbEntity
  8
0
  6
Continuous
 62
     2
100
AcDbCircle
 10
95.38265078887599
 20
328.3792939537759
 30
0.0
 40
0.4242446153828041
100
AcDbArc
 50
180.0
 51
270.0
  0
ARC
  5
20D
102
{ACAD_REACTORS
330
263
330
264
102
}
330
71
100
AcDbEntity
  8
0
  6
Continuous
 62
     2
100
AcDbCircle
 10
97.4523787266321
 20
330.5140927485578
 30
0.0
 40
0.315716923076593
100
AcDbArc
 50
0.0
 51
64.80558935146027
  0
ARC
  5
20E
102
{ACAD_REACTORS
330
263
330
264
102
}
330
71
100
AcDbEntity
  8
0
  6
Continuous
 62
     2
100
AcDbCircle
 10
97.97496317420709
 20
331.6249224946206
 30
0.0
 40
0.9118975235575889
100
AcDbArc
 50
115.194410648529
 51
244.8055893514878
  0
ARC
  5
20F
102
{ACAD_REACTORS
330
263
330
264
102
}
330
71
100
AcDbEntity
  8
0
  6
Continuous
 62
     2
100
AcDbCircle
 10
95.97654546562248
 20
333.3397768597433
 30
0.0
 40
0.3157169230761951
100
AcDbArc
 50
90.0
 51
180.0
  0
ARC
  5
210
102
{ACAD_REACTORS
330
25D
330
25E
102
}
330
71
100
AcDbEntity
  8
0
  6
Continuous
 62
     2
100
AcDbCircle
 10
103.3151240476395
 20
333.3520796682669
 30
0.0
 40
0.3528638246711466
100
AcDbArc
 50
270.0
 51
90.0
  0
ARC
  5
211
102
{ACAD_REACTORS
330
261
330
262
102
}
330
71
100
AcDbEntity
  8
0
  6
Continuous
 62
     2
100
AcDbCircle
 10
110.0578147928653
 20
332.8411445764722
 30
0.0
 40
1.526904761905939
100
AcDbArc
 50
90.0
 51
270.0
  0
ARC
  5
212
102
{ACAD_REACTORS
330
265
330
266
102
}
330
71
100
AcDbEntity
  8
0
  6
Continuous
 62
     2
100
AcDbCircle
 10
119.484809885569
 20
329.369163738263
 30
0.0
 40
1.639695123940214
100
AcDbArc
 50
90.0
 51
164.9381082228967
  0
ARC
  5
213
102
{ACAD_REACTORS
330
265
330
266
102
}
330
71
100
AcDbEntity
  8
0
  6
Continuous
 62
     2
100
AcDbCircle
 10
119.0656820421074
 20
329.4819541002979
 30
0.0
 40
1.205656168392974
100
AcDbArc
 50
164.9381082229052
 51
195.0618917770974
  0
ARC
  5
214
102
{ACAD_REACTORS
330
265
330
266
102
}
330
71
100
AcDbEntity
  8
0
  6
Continuous
 62
     2
100
AcDbCircle
 10
119.6155543668848
 20
329.2768826709594
 30
0.0
 40
0.5115800601960091
100
AcDbArc
 50
208.5214732576873
 51
246.6277221118464
  0
ARC
  5
215
102
{ACAD_REACTORS
330
265
330
266
102
}
330
71
100
AcDbEntity
  8
0
  6
Continuous
 62
     2
100
AcDbCircle
 10
119.6155543668848
 20
329.6870255296369
 30
0.0
 40
0.5115800601944096
100
AcDbArc
 50
109.3371432194838
 51
151.4785267424245
  0
ARC
  5
216
102
{ACAD_REACTORS
330
263
330
264
102
}
330
71
100
AcDbEntity
  8
0
  6
Continuous
 62
     2
100
AcDbCircle
 10
98.55209415215418
 20
329.9339294879571
 30
0.0
 40
0.315716923076792
100
AcDbArc
 50
180.0
 51
269.8110329574541
  0
ARC
  5
217
102
{ACAD_REACTORS
330
263
330
264
102
}
330
71
100
AcDbEntity
  8
0
  6
Continuous
 62
     2
100
AcDbCircle
 10
98.5577102874642
 20
331.6367644355261
 30
0.0
 40
2.018561131933266
100
AcDbArc
 50
269.8110329575858
 51
90.18896704241416
  0
ARC
  5
218
102
{ACAD_REACTORS
330
263
330
264
102
}
330
71
100
AcDbEntity
  8
0
  6
Continuous
 62
     2
100
AcDbCircle
 10
98.55209415215418
 20
332.7340640945884
 30
0.0
 40
0.315716923076792
100
AcDbArc
 50
180.0
 51
244.6259913216482
  0
ARC
  5
219
102
{ACAD_REACTORS
330
263
330
264
102
}
330
71
100
AcDbEntity
  8
0
  6
Continuous
 62
     2
100
AcDbCircle
 10
98.55209415215418
 20
330.5157808946522
 30
0.0
 40
0.3157169230765328
100
AcDbArc
 50
115.3740086783519
 51
180.0
  0
ARC
  5
21A
102
{ACAD_REACTORS
330
267
330
268
102
}
330
71
100
AcDbEntity
  8
0
  6
Continuous
 62
     2
100
AcDbCircle
 10
103.3821084063161
 20
329.369163738263
 30
0.0
 40
1.639695123940507
100
AcDbArc
 50
84.84185523036236
 51
164.9381082228885
  0
ARC
  5
21B
102
{ACAD_REACTORS
330
267
330
268
102
}
330
71
100
AcDbEntity
  8
0
  6
Continuous
 62
     2
100
AcDbCircle
 10
102.9629805628533
 20
329.4819541002979
 30
0.0
 40
1.205656168390943
100
AcDbArc
 50
164.9381082228792
 51
195.0618917770947
  0
ARC
  5
21C
102
{ACAD_REACTORS
330
267
330
268
102
}
330
71
100
AcDbEntity
  8
0
  6
Continuous
 62
     2
100
AcDbCircle
 10
103.3821084063161
 20
329.5947444623327
 30
0.0
 40
1.639695123939394
100
AcDbArc
 50
195.0618917770885
 51
275.1581447696396
  0
ARC
  5
21D
102
{ACAD_REACTORS
330
267
330
268
102
}
330
71
100
AcDbEntity
  8
0
  6
Continuous
 62
     2
100
AcDbCircle
 10
103.0932523115802
 20
332.7946350455543
 30
0.0
 40
4.85259686349811
100
AcDbArc
 50
275.158144769625
 51
285.9799912583529
  0
ARC
  5
21E
102
{ACAD_REACTORS
330
267
330
268
102
}
330
71
100
AcDbEntity
  8
0
  6
Continuous
 62
     2
100
AcDbCircle
 10
103.8902101457122
 20
329.4819541002979
 30
0.0
 40
0.9410597353332545
100
AcDbArc
 50
151.4785267422669
 51
208.5214732577057
  0
ARC
  5
21F
102
{ACAD_REACTORS
330
267
330
268
102
}
330
71
100
AcDbEntity
  8
0
  6
Continuous
 62
     2
100
AcDbCircle
 10
103.5128528876319
 20
329.6870255296369
 30
0.0
 40
0.5115800601948574
100
AcDbArc
 50
113.3722778882019
 51
151.4785267423044
  0
ARC
  5
220
102
{ACAD_REACTORS
330
267
330
268
102
}
330
71
100
AcDbEntity
  8
0
  6
Continuous
 62
     2
100
AcDbCircle
 10
103.2511251866731
 20
328.0714877348897
 30
0.0
 40
2.227384008973517
100
AcDbArc
 50
58.06909105004049
 51
71.55192388186676
  0
ARC
  5
221
102
{ACAD_REACTORS
330
25F
330
260
102
}
330
71
100
AcDbEntity
  8
0
  6
Continuous
 62
     2
100
AcDbCircle
 10
106.313139322237
 20
329.6386852784184
 30
0.0
 40
0.5179085730132887
100
AcDbArc
 50
38.120419797148
 51
141.8795802028598
  0
ARC
  5
222
102
{ACAD_REACTORS
330
25F
330
260
102
}
330
71
100
AcDbEntity
  8
0
  6
Continuous
 62
     2
100
AcDbCircle
 10
106.5128793585831
 20
329.4819541002979
 30
0.0
 40
0.7717997786794568
100
AcDbArc
 50
141.8795802028386
 51
218.1204197971714
  0
ARC
  5
223
102
{ACAD_REACTORS
330
25F
330
260
102
}
330
71
100
AcDbEntity
  8
0
  6
Continuous
 62
     2
100
AcDbCircle
 10
106.313139322237
 20
329.3252229221779
 30
0.0
 40
0.5179085730137641
100
AcDbArc
 50
218.1204197971947
 51
321.8795802027976
  0
ARC
  5
224
102
{ACAD_REACTORS
330
25F
330
260
102
}
330
71
100
AcDbEntity
  8
0
  6
Continuous
 62
     2
100
AcDbCircle
 10
106.1133992858906
 20
329.4819541002979
 30
0.0
 40
0.7717997786797187
100
AcDbArc
 50
321.8795802028378
 51
38.12041979715228
  0
CIRCLE
  5
225
330
71
100
AcDbEntity
  8
1
  6
Continuous
 62
     2
100
AcDbCircle
 10
103.4584061734932
 20
341.7865493383762
 30
0.0
 40
2.5
  0
CIRCLE
  5
226
330
71
100
AcDbEntity
  8
1
  6
Continuous
 62
     2
100
AcDbCircle
 10
103.4584061734932
 20
341.7865493383762
 30
0.0
 40
1.249999999999901
  0
CIRCLE
  5
227
102
{ACAD_REACTORS
330
263
330
264
102
}
330
71
100
AcDbEntity
  8
0
  6
Continuous
 62
     2
100
AcDbCircle
 10
98.0022364393935
 20
331.6249224946206
 30
0.0
 40
0.4709789327785074
  0
MTEXT
  5
228
330
71
100
AcDbEntity
  8
1
 62
     3
100
AcDbMText
 10
-66.72837640024761
 20
507.4528574936751
 30
0.0
 40
1.8
 41
0.0
 71
     7
 72
     1
  3
Weitergabe sowie Vervielf\U+00e4ltigung dieses Dokuments, Verwertung und \PMitteilung seines Inhalts sind verboten, soweit nicht ausdr\U+00fccklich gestattet. \PZuwiderhandlungen verpflichten zu Schadenersatz. Alle Rechte f\U+00fcr den Fall\Pder Pat
  1
ent-, Gebrauchsmuster- oder Designeintragung vorbehalten.
  7
CONVERTER_11
 73
     1
 44
0.99639855942377
  0
MTEXT
  5
229
330
71
100
AcDbEntity
  8
1
 62
     3
100
AcDbMText
 10
116.1247334385405
 20
507.4528574936751
 30
0.0
 40
1.8
 41
0.0
 71
     7
 72
     1
  3
Transfer or duplication of this document as well as the utilisation or\Pcommunication of its content are not permitted unless express consent\Pis granted. Violations give rise to claims for damages. All rights reserved\Pin case of patent, utility mo
  1
del or design patent registrations.
  7
CONVERTER_11
 73
     1
 44
0.99639855942377
  0
TEXT
  5
22A
330
71
100
AcDbEntity
  8
1
 62
     2
100
AcDbText
 10
109.9217512869304
 20
321.9025321233847
 30
0.0
 40
1.8
  1
of
 41
0.9
  7
CONVERTER_11
100
AcDbText
  0
TEXT
  5
22B
330
71
100
AcDbEntity
  8
1
 62
     2
100
AcDbText
 10
91.72175128693058
 20
321.9025321233846
 30
0.0
 40
1.8
  1
page
 41
0.9
  7
CONVERTER_11
100
AcDbText
  0
TEXT
  5
22C
330
71
100
AcDbEntity
  8
1
 62
     2
100
AcDbText
 10
100.3680162572726
 20
321.8623006845743
 30
0.0
 40
1.8
  1
1
 41
0.9
  7
CONVERTER_11
100
AcDbText
  0
TEXT
  5
22D
330
71
100
AcDbEntity
  8
1
 62
     2
100
AcDbText
 10
115.1570600967441
 20
321.9115493383762
 30
0.0
 40
1.8
  1
1
 41
0.9
  7
CONVERTER_11
100
AcDbText
  0
MTEXT
  5
22F
330
71
100
AcDbEntity
  8
1
 62
     7
100
AcDbMText
 10
173.6941535503061
 20
323.9115493383765
 30
0.0
 40
3.0
 41
0.0
 71
     5
 72
     1
  1
D-UK 16 BU
  7
CONVERTER_12
 73
     1
 44
1.20048019207683
  0
MTEXT
  5
230
330
71
100
AcDbEntity
  8
1
 62
     2
100
AcDbMText
 10
128.1217512869305
 20
328.1615493383763
 30
0.0
 40
1.8
 41
0.0
 71
     1
 72
     1
  1
description
  7
CONVERTER_11
 73
     1
 44
1.20048019207683
  0
MTEXT
  5
231
330
71
100
AcDbEntity
  8
1
 62
     3
100
AcDbMText
 10
116.9217512869305
 20
341.7865493383763
 30
0.0
 40
2.5
 41
0.0
 71
     5
 72
     1
  1
DIN A4
  7
CONVERTER_11
 73
     1
 44
1.20048019207683
  0
MTEXT
  5
232
330
71
100
AcDbEntity
  8
1
 62
     7
100
AcDbMText
 10
-69.23344418631848
 20
343.1615493383763
 30
0.0
 40
3.5
 41
0.0
 71
     5
 72
     1
  1
D
  7
CONVERTER_11
 73
     1
 44
1.20048019207683
  0
MTEXT
  5
233
330
71
100
AcDbEntity
  8
1
 62
     7
100
AcDbMText
 10
-69.23344418631848
 20
395.6615493383763
 30
0.0
 40
3.5
 41
0.0
 71
     5
 72
     1
  1
C
  7
CONVERTER_11
 73
     1
 44
1.20048019207683
  0
MTEXT
  5
234
330
71
100
AcDbEntity
  8
1
 62
     7
100
AcDbMText
 10
-69.23344418631848
 20
445.6615493383763
 30
0.0
 40
3.5
 41
0.0
 71
     5
 72
     1
  1
B
  7
CONVERTER_11
 73
     1
 44
1.20048019207683
  0
MTEXT
  5
235
330
71
100
AcDbEntity
  8
1
 62
     7
100
AcDbMText
 10
-69.23344418631848
 20
498.1615493383763
 30
0.0
 40
3.5
 41
0.0
 71
     5
 72
     1
  1
A
  7
CONVERTER_11
 73
     1
 44
1.20048019207683
  0
MTEXT
  5
236
330
71
100
AcDbEntity
  8
1
 62
     7
100
AcDbMText
 10
201.0165558136798
 20
318.1615493383762
 30
0.0
 40
3.5
 41
0.0
 71
     5
 72
     1
  1
6
  7
CONVERTER_11
 73
     1
 44
1.20048019207683
  0
MTEXT
  5
237
330
71
100
AcDbEntity
  8
1
 62
     7
100
AcDbMText
 10
151.7665558136806
 20
318.1615493383762
 30
0.0
 40
3.5
 41
0.0
 71
     5
 72
     1
  1
5
  7
CONVERTER_11
 73
     1
 44
1.20048019207683
  0
MTEXT
  5
238
330
71
100
AcDbEntity
  8
1
 62
     7
100
AcDbMText
 10
101.7665558136805
 20
318.1615493383762
 30
0.0
 40
3.5
 41
0.0
 71
     5
 72
     1
  1
4
  7
CONVERTER_11
 73
     1
 44
1.20048019207683
  0
MTEXT
  5
239
330
71
100
AcDbEntity
  8
1
 62
     7
100
AcDbMText
 10
51.76655581368061
 20
318.1615493383762
 30
0.0
 40
3.5
 41
0.0
 71
     5
 72
     1
  1
3
  7
CONVERTER_11
 73
     1
 44
1.20048019207683
  0
MTEXT
  5
23A
330
71
100
AcDbEntity
  8
1
 62
     7
100
AcDbMText
 10
1.76655581368061
 20
318.1615493383762
 30
0.0
 40
3.5
 41
0.0
 71
     5
 72
     1
  1
2
  7
CONVERTER_11
 73
     1
 44
1.20048019207683
  0
MTEXT
  5
23B
330
71
100
AcDbEntity
  8
1
 62
     7
100
AcDbMText
 10
-47.48344418631899
 20
318.1615493383762
 30
0.0
 40
3.5
 41
0.0
 71
     5
 72
     1
  1
1
  7
CONVERTER_11
 73
     1
 44
1.20048019207683
  0
MTEXT
  5
23C
330
71
100
AcDbEntity
  8
1
 62
     7
100
AcDbMText
 10
222.7665558136796
 20
343.1615493383763
 30
0.0
 40
3.5
 41
0.0
 71
     5
 72
     1
  1
D
  7
CONVERTER_11
 73
     1
 44
1.20048019207683
  0
MTEXT
  5
23D
330
71
100
AcDbEntity
  8
1
 62
     7
100
AcDbMText
 10
222.7665558136796
 20
445.6615493383782
 30
0.0
 40
3.5
 41
0.0
 71
     5
 72
     1
  1
B
  7
CONVERTER_11
 73
     1
 44
1.20048019207683
  0
MTEXT
  5
23E
330
71
100
AcDbEntity
  8
1
 62
     7
100
AcDbMText
 10
222.7665558136796
 20
498.1615493383763
 30
0.0
 40
3.5
 41
0.0
 71
     5
 72
     1
  1
A
  7
CONVERTER_11
 73
     1
 44
1.20048019207683
  0
MTEXT
  5
23F
330
71
100
AcDbEntity
  8
1
 62
     7
100
AcDbMText
 10
222.7665558136796
 20
395.6615493383782
 30
0.0
 40
3.5
 41
0.0
 71
     5
 72
     1
  1
C
  7
CONVERTER_11
 73
     1
 44
1.20048019207683
  0
MTEXT
  5
240
330
71
100
AcDbEntity
  8
1
 62
     2
100
AcDbMText
 10
56.28373656188308
 20
333.4115493383762
 30
0.0
 40
2.0
 41
0.0
 71
     5
 72
     1
  1
General Information\P- Simplified representation\P- Document excluded from change process\P- Linear dimensions [mm]
  7
CONVERTER_11
 73
     1
 44
1.20048019207683
  0
TEXT
  5
241
330
71
100
AcDbEntity
  8
1
 62
     7
100
AcDbText
 10
128.6217512869303
 20
330.4615493383762
 30
0.0
 40
2.5
  1
3006108
 41
0.81
  7
CONVERTER_12
100
AcDbText
  0
MTEXT
  5
242
330
71
100
AcDbEntity
  8
1
 62
     2
100
AcDbMText
 10
128.2217512869306
 20
336.6615493383763
 30
0.0
 40
1.8
 41
0.0
 71
     1
 72
     1
  1
ident.-No.
  7
CONVERTER_11
 73
     1
 44
1.20048019207683
  0
MTEXT
  5
243
330
71
100
AcDbEntity
  8
1
 62
     2
100
AcDbMText
 10
212.4481475320033
 20
345.1615493383763
 30
0.0
 40
1.8
 41
0.0
 71
     1
 72
     1
  1
scale
  7
CONVERTER_11
 73
     1
 44
1.20048019207683
  0
MTEXT
  5
245
330
71
100
AcDbEntity
  8
1
 62
     3
100
AcDbMText
 10
215.8073516728429
 20
338.9615493383764
 30
0.0
 40
2.5
 41
0.0
 71
     8
 72
     1
  1
1:1
  7
CONVERTER_13
 73
     1
 44
1.32052821128451
  0
TEXT
  5
246
330
71
100
AcDbEntity
  8
1
 62
     7
100
AcDbText
 10
128.2217512869306
 20
338.9615493383762
 30
0.0
 40
2.5
  1
00327077
 41
0.81
  7
CONVERTER_12
100
AcDbText
  0
MTEXT
  5
248
330
71
100
AcDbEntity
  8
1
 62
     2
100
AcDbMText
 10
128.2217512869306
 20
345.1615493383763
 30
0.0
 40
1.8
 41
0.0
 71
     1
 72
     1
  1
document-No. / RI
  7
CONVERTER_14
 73
     1
 44
1.32052821128451
  0
TEXT
  5
249
330
71
100
AcDbEntity
  8
1
 62
     3
100
AcDbText
 10
156.0217512869306
 20
330.4615493383762
 30
0.0
 40
2.5
  1
TECDOC 2D_Productdrawing
 41
0.81
  7
CONVERTER_12
100
AcDbText
  0
MTEXT
  5
24A
330
71
100
AcDbEntity
  8
1
 62
     2
100
AcDbMText
 10
156.0217512869306
 20
336.6615493383762
 30
0.0
 40
1.8
 41
0.0
 71
     1
 72
     1
  1
document-type
  7
CONVERTER_11
 73
     1
 44
1.20048019207683
  0
MTEXT
  5
24B
330
71
100
AcDbEntity
  8
1
 62
     2
100
AcDbMText
 10
185.8481475320035
 20
345.1615493383762
 30
0.0
 40
1.8
 41
0.0
 71
     1
 72
     1
  1
date
  7
CONVERTER_11
 73
     1
 44
1.32052821128451
  0
TEXT
  5
24C
330
71
100
AcDbEntity
  8
1
 62
     3
100
AcDbText
 10
185.8481475320035
 20
338.9615493383762
 30
0.0
 40
2.5
  1
26.01.2018
 41
0.81
  7
CONVERTER_12
100
AcDbText
  0
TEXT
  5
24D
330
71
100
AcDbEntity
  8
1
 62
     7
100
AcDbText
 10
148.2516635059864
 20
338.9615493383762
 30
0.0
 40
2.5
  1
01
 41
0.81
  7
CONVERTER_12
100
AcDbText
  0
TEXT
  5
24E
330
71
100
AcDbEntity
  8
1
 62
     7
100
AcDbText
 10
146.0952990089444
 20
338.9615493383762
 30
0.0
 40
2.5
  1
/
 41
0.9
  7
CONVERTER_11
100
AcDbText
  0
HATCH
  5
24F
330
71
100
AcDbEntity
  8
1
  6
Continuous
 62
     2
100
AcDbHatch
 10
0.0
 20
0.0
 30
0.0
210
0.0
220
0.0
230
1.0
  2
_USER
 70
     0
 71
     1
 91
        1
 92
        1
 93
       12
 72
     1
 10
108.3892519998917
 20
331.3142398145669
 11
107.1964592977253
 21
331.3142398145669
 72
     1
 10
107.1964592977253
 20
331.3142398145669
 11
107.1964592977253
 21
332.4485119234107
 72
     1
 10
107.1964592977253
 20
332.4485119234107
 11
106.1468017198178
 21
332.4485119234107
 72
     1
 10
106.1468017198178
 20
332.4485119234107
 11
106.1468017198178
 21
331.3142398145669
 72
     1
 10
106.1468017198178
 20
331.3142398145669
 11
104.9540090176512
 21
331.3142398145669
 72
     1
 10
104.9540090176512
 20
331.3142398145669
 11
104.9540090176512
 21
334.3680493383781
 72
     1
 10
104.9540090176512
 20
334.3680493383781
 11
106.1468017198178
 21
334.3680493383781
 72
     1
 10
106.1468017198178
 20
334.3680493383781
 11
106.1468017198178
 21
333.2992160050435
 72
     1
 10
106.1468017198178
 20
333.2992160050435
 11
107.1964592977253
 21
333.2992160050435
 72
     1
 10
107.1964592977253
 20
333.2992160050435
 11
107.1964592977253
 21
334.3680493383781
 72
     1
 10
107.1964592977253
 20
334.3680493383781
 11
108.3892519998917
 21
334.3680493383781
 72
     1
 10
108.3892519998917
 20
334.3680493383781
 11
108.3892519998917
 21
331.3142398145669
 97
       12
330
1BC
330
1BD
330
1A7
330
1A6
330
1A5
330
1B9
330
1A4
330
1BA
330
1BB
330
1A3
330
1A2
330
1A1
 75
     1
 76
     0
 52
45.0
 41
0.1
 77
     0
 78
     1
 53
45.0
 43
0.0
 44
0.0
 45
-0.0707106781186548
 46
0.0707106781186548
 79
     0
 98
        1
 10
0.0
 20
0.0
  0
HATCH
  5
250
330
71
100
AcDbEntity
  8
1
  6
Continuous
 62
     2
100
AcDbHatch
 10
0.0
 20
0.0
 30
0.0
210
0.0
220
0.0
230
1.0
  2
_USER
 70
     0
 71
     1
 91
        1
 92
        1
 93
       12
 72
     1
 10
108.3892519998917
 20
331.3142398145669
 11
107.1964592977253
 21
331.3142398145669
 72
     1
 10
107.1964592977253
 20
331.3142398145669
 11
107.1964592977253
 21
332.4485119234107
 72
     1
 10
107.1964592977253
 20
332.4485119234107
 11
106.1468017198178
 21
332.4485119234107
 72
     1
 10
106.1468017198178
 20
332.4485119234107
 11
106.1468017198178
 21
331.3142398145669
 72
     1
 10
106.1468017198178
 20
331.3142398145669
 11
104.9540090176512
 21
331.3142398145669
 72
     1
 10
104.9540090176512
 20
331.3142398145669
 11
104.9540090176512
 21
334.3680493383781
 72
     1
 10
104.9540090176512
 20
334.3680493383781
 11
106.1468017198178
 21
334.3680493383781
 72
     1
 10
106.1468017198178
 20
334.3680493383781
 11
106.1468017198178
 21
333.2992160050435
 72
     1
 10
106.1468017198178
 20
333.2992160050435
 11
107.1964592977253
 21
333.2992160050435
 72
     1
 10
107.1964592977253
 20
333.2992160050435
 11
107.1964592977253
 21
334.3680493383781
 72
     1
 10
107.1964592977253
 20
334.3680493383781
 11
108.3892519998917
 21
334.3680493383781
 72
     1
 10
108.3892519998917
 20
334.3680493383781
 11
108.3892519998917
 21
331.3142398145669
 97
       12
330
1BC
330
1BD
330
1A7
330
1A6
330
1A5
330
1B9
330
1A4
330
1BA
330
1BB
330
1A3
330
1A2
330
1A1
 75
     1
 76
     0
 52
45.0
 41
0.1
 77
     0
 78
     1
 53
45.0
 43
0.0
 44
0.0
 45
-0.0707106781186548
 46
0.0707106781186548
 79
     0
 98
        1
 10
0.0
 20
0.0
  0
HATCH
  5
251
330
71
100
AcDbEntity
  8
1
  6
Continuous
 62
     2
100
AcDbHatch
 10
0.0
 20
0.0
 30
0.0
210
0.0
220
0.0
230
1.0
  2
_USER
 70
     0
 71
     1
 91
        1
 92
        1
 93
       10
 72
     1
 10
110.63155134908
 20
329.7000833519986
 11
109.3910469388271
 21
331.0088588622037
 72
     1
 10
109.3910469388271
 20
331.0088588622037
 11
108.1982542366595
 21
331.0088588622037
 72
     1
 10
108.1982542366595
 20
331.0088588622037
 11
108.1982542366595
 21
327.9550493383926
 72
     1
 10
108.1982542366595
 20
327.9550493383926
 11
109.3910469388271
 21
327.9550493383926
 72
     1
 10
109.3910469388271
 20
327.9550493383926
 11
109.3910469388271
 21
329.2638248485972
 72
     1
 10
109.3910469388271
 20
329.2638248485972
 11
110.63155134908
 21
327.9550493383926
 72
     1
 10
110.63155134908
 20
327.9550493383926
 11
111.8243440512464
 21
327.9550493383926
 72
     1
 10
111.8243440512464
 20
327.9550493383926
 11
111.8243440512464
 21
331.0088588622037
 72
     1
 10
111.8243440512464
 20
331.0088588622037
 11
110.63155134908
 21
331.0088588622037
 72
     1
 10
110.63155134908
 20
331.0088588622037
 11
110.63155134908
 21
329.7000833519986
 97
       10
330
1CA
330
19A
330
199
330
19C
330
1C5
330
1C6
330
19B
330
1C7
330
1C8
330
1C9
 75
     1
 76
     0
 52
45.0
 41
0.1
 77
     0
 78
     1
 53
45.0
 43
0.0
 44
0.0
 45
-0.0707106781186548
 46
0.0707106781186548
 79
     0
 98
        1
 10
0.0
 20
0.0
  0
HATCH
  5
252
330
71
100
AcDbEntity
  8
1
  6
Continuous
 62
     2
100
AcDbHatch
 10
0.0
 20
0.0
 30
0.0
210
0.0
220
0.0
230
1.0
  2
_USER
 70
     0
 71
     1
 91
        1
 92
        1
 93
       10
 72
     1
 10
110.63155134908
 20
329.7000833519986
 11
109.3910469388271
 21
331.0088588622037
 72
     1
 10
109.3910469388271
 20
331.0088588622037
 11
108.1982542366595
 21
331.0088588622037
 72
     1
 10
108.1982542366595
 20
331.0088588622037
 11
108.1982542366595
 21
327.9550493383926
 72
     1
 10
108.1982542366595
 20
327.9550493383926
 11
109.3910469388271
 21
327.9550493383926
 72
     1
 10
109.3910469388271
 20
327.9550493383926
 11
109.3910469388271
 21
329.2638248485972
 72
     1
 10
109.3910469388271
 20
329.2638248485972
 11
110.63155134908
 21
327.9550493383926
 72
     1
 10
110.63155134908
 20
327.9550493383926
 11
111.8243440512464
 21
327.9550493383926
 72
     1
 10
111.8243440512464
 20
327.9550493383926
 11
111.8243440512464
 21
331.0088588622037
 72
     1
 10
111.8243440512464
 20
331.0088588622037
 11
110.63155134908
 21
331.0088588622037
 72
     1
 10
110.63155134908
 20
331.0088588622037
 11
110.63155134908
 21
329.7000833519986
 97
       10
330
1CA
330
19A
330
199
330
19C
330
1C5
330
1C6
330
19B
330
1C7
330
1C8
330
1C9
 75
     1
 76
     0
 52
45.0
 41
0.1
 77
     0
 78
     1
 53
45.0
 43
0.0
 44
0.0
 45
-0.0707106781186548
 46
0.0707106781186548
 79
     0
 98
        1
 10
0.0
 20
0.0
  0
HATCH
  5
253
330
71
100
AcDbEntity
  8
1
  6
Continuous
 62
     2
100
AcDbHatch
 10
0.0
 20
0.0
 30
0.0
210
0.0
220
0.0
230
1.0
  2
_USER
 70
     0
 71
     1
 91
        1
 92
        1
 93
       10
 72
     1
 10
115.8799901694997
 20
333.0592738281729
 11
114.6394857592457
 21
334.3680493383781
 72
     1
 10
114.6394857592457
 20
334.3680493383781
 11
113.4466930570792
 21
334.3680493383781
 72
     1
 10
113.4466930570792
 20
334.3680493383781
 11
113.4466930570792
 21
331.3142398145669
 72
     1
 10
113.4466930570792
 20
331.3142398145669
 11
114.6394857592457
 21
331.3142398145669
 72
     1
 10
114.6394857592457
 20
331.3142398145669
 11
114.6394857592457
 21
332.6230153247716
 72
     1
 10
114.6394857592457
 20
332.6230153247716
 11
115.8799901694997
 21
331.3142398145669
 72
     1
 10
115.8799901694997
 20
331.3142398145669
 11
117.0727828716663
 21
331.3142398145669
 72
     1
 10
117.0727828716663
 20
331.3142398145669
 11
117.0727828716663
 21
334.3680493383781
 72
     1
 10
117.0727828716663
 20
334.3680493383781
 11
115.8799901694997
 21
334.3680493383781
 72
     1
 10
115.8799901694997
 20
334.3680493383781
 11
115.8799901694997
 21
333.0592738281729
 97
       10
330
1CF
330
197
330
196
330
1D0
330
195
330
1CB
330
1CC
330
1CD
330
1CE
330
198
 75
     1
 76
     0
 52
45.0
 41
0.1
 77
     0
 78
     1
 53
45.0
 43
0.0
 44
0.0
 45
-0.0707106781186548
 46
0.0707106781186548
 79
     0
 98
        1
 10
0.0
 20
0.0
  0
HATCH
  5
254
330
71
100
AcDbEntity
  8
1
  6
Continuous
 62
     2
100
AcDbHatch
 10
0.0
 20
0.0
 30
0.0
210
0.0
220
0.0
230
1.0
  2
_USER
 70
     0
 71
     1
 91
        1
 92
        1
 93
       10
 72
     1
 10
115.8799901694997
 20
333.0592738281729
 11
114.6394857592457
 21
334.3680493383781
 72
     1
 10
114.6394857592457
 20
334.3680493383781
 11
113.4466930570792
 21
334.3680493383781
 72
     1
 10
113.4466930570792
 20
334.3680493383781
 11
113.4466930570792
 21
331.3142398145669
 72
     1
 10
113.4466930570792
 20
331.3142398145669
 11
114.6394857592457
 21
331.3142398145669
 72
     1
 10
114.6394857592457
 20
331.3142398145669
 11
114.6394857592457
 21
332.6230153247716
 72
     1
 10
114.6394857592457
 20
332.6230153247716
 11
115.8799901694997
 21
331.3142398145669
 72
     1
 10
115.8799901694997
 20
331.3142398145669
 11
117.0727828716663
 21
331.3142398145669
 72
     1
 10
117.0727828716663
 20
331.3142398145669
 11
117.0727828716663
 21
334.3680493383781
 72
     1
 10
117.0727828716663
 20
334.3680493383781
 11
115.8799901694997
 21
334.3680493383781
 72
     1
 10
115.8799901694997
 20
334.3680493383781
 11
115.8799901694997
 21
333.0592738281729
 97
       10
330
1CF
330
197
330
196
330
1D0
330
195
330
1CB
330
1CC
330
1CD
330
1CE
330
198
 75
     1
 76
     0
 52
45.0
 41
0.1
 77
     0
 78
     1
 53
45.0
 43
0.0
 44
0.0
 45
-0.0707106781186548
 46
0.0707106781186548
 79
     0
 98
        1
 10
0.0
 20
0.0
  0
HATCH
  5
255
330
71
100
AcDbEntity
  8
1
  6
Continuous
 62
     2
100
AcDbHatch
 10
0.0
 20
0.0
 30
0.0
210
0.0
220
0.0
230
1.0
  2
_USER
 70
     0
 71
     1
 91
        1
 92
        1
 93
        8
 72
     1
 10
114.7824699526202
 20
331.0088588622037
 11
111.9674791755066
 21
331.0088588622037
 72
     1
 10
111.9674791755066
 20
331.0088588622037
 11
111.9674791755066
 21
330.2235935560801
 72
     1
 10
111.9674791755066
 20
330.2235935560801
 11
112.7785782129812
 21
330.2235935560801
 72
     1
 10
112.7785782129812
 20
330.2235935560801
 11
112.7785782129812
 21
327.9550493383926
 72
     1
 10
112.7785782129812
 20
327.9550493383926
 11
113.9713709151477
 21
327.9550493383926
 72
     1
 10
113.9713709151477
 20
327.9550493383926
 11
113.9713709151477
 21
330.2235935560801
 72
     1
 10
113.9713709151477
 20
330.2235935560801
 11
114.7824699526202
 21
330.2235935560801
 72
     1
 10
114.7824699526202
 20
330.2235935560801
 11
114.7824699526202
 21
331.0088588622037
 97
        8
330
191
330
1D1
330
190
330
1D2
330
1D3
330
194
330
193
330
192
 75
     1
 76
     0
 52
45.0
 41
0.1
 77
     0
 78
     1
 53
45.0
 43
0.0
 44
0.0
 45
-0.0707106781186548
 46
0.0707106781186548
 79
     0
 98
        1
 10
0.0
 20
0.0
  0
HATCH
  5
256
330
71
100
AcDbEntity
  8
1
  6
Continuous
 62
     2
100
AcDbHatch
 10
0.0
 20
0.0
 30
0.0
210
0.0
220
0.0
230
1.0
  2
_USER
 70
     0
 71
     1
 91
        1
 92
        1
 93
        8
 72
     1
 10
114.7824699526202
 20
331.0088588622037
 11
111.9674791755066
 21
331.0088588622037
 72
     1
 10
111.9674791755066
 20
331.0088588622037
 11
111.9674791755066
 21
330.2235935560801
 72
     1
 10
111.9674791755066
 20
330.2235935560801
 11
112.7785782129812
 21
330.2235935560801
 72
     1
 10
112.7785782129812
 20
330.2235935560801
 11
112.7785782129812
 21
327.9550493383926
 72
     1
 10
112.7785782129812
 20
327.9550493383926
 11
113.9713709151477
 21
327.9550493383926
 72
     1
 10
113.9713709151477
 20
327.9550493383926
 11
113.9713709151477
 21
330.2235935560801
 72
     1
 10
113.9713709151477
 20
330.2235935560801
 11
114.7824699526202
 21
330.2235935560801
 72
     1
 10
114.7824699526202
 20
330.2235935560801
 11
114.7824699526202
 21
331.0088588622037
 97
        8
330
191
330
1D1
330
190
330
1D2
330
1D3
330
194
330
193
330
192
 75
     1
 76
     0
 52
45.0
 41
0.1
 77
     0
 78
     1
 53
45.0
 43
0.0
 44
0.0
 45
-0.0707106781186548
 46
0.0707106781186548
 79
     0
 98
        1
 10
0.0
 20
0.0
  0
HATCH
  5
257
330
71
100
AcDbEntity
  8
1
  6
Continuous
 62
     2
100
AcDbHatch
 10
0.0
 20
0.0
 30
0.0
210
0.0
220
0.0
230
1.0
  2
_USER
 70
     0
 71
     1
 91
        2
 92
        1
 93
        8
 72
     1
 10
116.9208974085672
 20
327.9550493383926
 11
116.7094173550914
 21
328.4960098826105
 72
     1
 10
116.7094173550914
 20
328.4960098826105
 11
115.5769757784176
 21
328.4960098826105
 72
     1
 10
115.5769757784176
 20
328.4960098826105
 11
115.3654957249418
 21
327.9550493383926
 72
     1
 10
115.3654957249418
 20
327.9550493383926
 11
114.1249913146888
 21
327.9550493383926
 72
     1
 10
114.1249913146888
 20
327.9550493383926
 11
115.5229443616281
 21
331.0088588622037
 72
     1
 10
115.5229443616281
 20
331.0088588622037
 11
116.7634487718808
 21
331.0088588622037
 72
     1
 10
116.7634487718808
 20
331.0088588622037
 11
118.1614018188211
 21
327.9550493383926
 72
     1
 10
118.1614018188211
 20
327.9550493383926
 11
116.9208974085672
 21
327.9550493383926
 97
        8
330
1D5
330
1D6
330
18D
330
1D7
330
18C
330
18F
330
1D4
330
18E
 92
       16
 93
        3
 72
     1
 10
115.8430313295626
 20
329.1765731479171
 11
116.143196566755
 21
329.9443881139038
 72
     1
 10
116.143196566755
 20
329.9443881139038
 11
116.4433618039451
 21
329.1765731479171
 72
     1
 10
116.4433618039451
 20
329.1765731479171
 11
115.8430313295626
 21
329.1765731479171
 97
        3
330
18B
330
1D9
330
1D8
 75
     1
 76
     0
 52
45.0
 41
0.1
 77
     0
 78
     1
 53
45.0
 43
0.0
 44
0.0
 45
-0.0707106781186548
 46
0.0707106781186548
 79
     0
 98
        1
 10
0.0
 20
0.0
  0
HATCH
  5
258
330
71
100
AcDbEntity
  8
1
  6
Continuous
 62
     2
100
AcDbHatch
 10
0.0
 20
0.0
 30
0.0
210
0.0
220
0.0
230
1.0
  2
_USER
 70
     0
 71
     1
 91
        2
 92
        1
 93
        8
 72
     1
 10
116.9208974085672
 20
327.9550493383926
 11
116.7094173550914
 21
328.4960098826105
 72
     1
 10
116.7094173550914
 20
328.4960098826105
 11
115.5769757784176
 21
328.4960098826105
 72
     1
 10
115.5769757784176
 20
328.4960098826105
 11
115.3654957249418
 21
327.9550493383926
 72
     1
 10
115.3654957249418
 20
327.9550493383926
 11
114.1249913146888
 21
327.9550493383926
 72
     1
 10
114.1249913146888
 20
327.9550493383926
 11
115.5229443616281
 21
331.0088588622037
 72
     1
 10
115.5229443616281
 20
331.0088588622037
 11
116.7634487718808
 21
331.0088588622037
 72
     1
 10
116.7634487718808
 20
331.0088588622037
 11
118.1614018188211
 21
327.9550493383926
 72
     1
 10
118.1614018188211
 20
327.9550493383926
 11
116.9208974085672
 21
327.9550493383926
 97
        8
330
1D5
330
1D6
330
18D
330
1D7
330
18C
330
18F
330
1D4
330
18E
 92
       16
 93
        3
 72
     1
 10
115.8430313295626
 20
329.1765731479171
 11
116.143196566755
 21
329.9443881139038
 72
     1
 10
116.143196566755
 20
329.9443881139038
 11
116.4433618039451
 21
329.1765731479171
 72
     1
 10
116.4433618039451
 20
329.1765731479171
 11
115.8430313295626
 21
329.1765731479171
 97
        3
330
18B
330
1D9
330
1D8
 75
     1
 76
     0
 52
45.0
 41
0.1
 77
     0
 78
     1
 53
45.0
 43
0.0
 44
0.0
 45
-0.0707106781186548
 46
0.0707106781186548
 79
     0
 98
        1
 10
0.0
 20
0.0
  0
HATCH
  5
259
330
71
100
AcDbEntity
  8
1
  6
Continuous
 62
     2
100
AcDbHatch
 10
0.0
 20
0.0
 30
0.0
210
0.0
220
0.0
230
1.0
  2
_USER
 70
     0
 71
     1
 91
        1
 92
        1
 93
        4
 72
     1
 10
118.5518458223531
 20
331.3142398145669
 11
117.3113414121002
 21
331.3142398145669
 72
     1
 10
117.3113414121002
 20
331.3142398145669
 11
117.3113414121002
 21
334.3680493383781
 72
     1
 10
117.3113414121002
 20
334.3680493383781
 11
118.5518458223531
 21
334.3680493383781
 72
     1
 10
118.5518458223531
 20
334.3680493383781
 11
118.5518458223531
 21
331.3142398145669
 97
        4
330
188
330
18A
330
1DA
330
189
 75
     1
 76
     0
 52
45.0
 41
0.1
 77
     0
 78
     1
 53
45.0
 43
0.0
 44
0.0
 45
-0.0707106781186548
 46
0.0707106781186548
 79
     0
 98
        1
 10
0.0
 20
0.0
  0
HATCH
  5
25A
330
71
100
AcDbEntity
  8
1
  6
Continuous
 62
     2
100
AcDbHatch
 10
0.0
 20
0.0
 30
0.0
210
0.0
220
0.0
230
1.0
  2
_USER
 70
     0
 71
     1
 91
        1
 92
        1
 93
        4
 72
     1
 10
118.5518458223531
 20
331.3142398145669
 11
117.3113414121002
 21
331.3142398145669
 72
     1
 10
117.3113414121002
 20
331.3142398145669
 11
117.3113414121002
 21
334.3680493383781
 72
     1
 10
117.3113414121002
 20
334.3680493383781
 11
118.5518458223531
 21
334.3680493383781
 72
     1
 10
118.5518458223531
 20
334.3680493383781
 11
118.5518458223531
 21
331.3142398145669
 97
        4
330
188
330
18A
330
1DA
330
189
 75
     1
 76
     0
 52
45.0
 41
0.1
 77
     0
 78
     1
 53
45.0
 43
0.0
 44
0.0
 45
-0.0707106781186548
 46
0.0707106781186548
 79
     0
 98
        1
 10
0.0
 20
0.0
  0
HATCH
  5
25B
330
71
100
AcDbEntity
  8
1
  6
Continuous
 62
     2
100
AcDbHatch
 10
0.0
 20
0.0
 30
0.0
210
0.0
220
0.0
230
1.0
  2
_USER
 70
     0
 71
     1
 91
        1
 92
        1
 93
       12
 72
     1
 10
122.7743319880239
 20
334.3680493383781
 11
121.4718023572574
 21
332.8950988083419
 72
     1
 10
121.4718023572574
 20
332.8950988083419
 11
122.8697554041977
 21
331.3142398145669
 72
     1
 10
122.8697554041977
 20
331.3142398145669
 11
121.4670311864494
 21
331.3142398145669
 72
     1
 10
121.4670311864494
 20
331.3142398145669
 11
120.7704402483839
 21
332.1019715998606
 72
     1
 10
120.7704402483839
 20
332.1019715998606
 11
120.0738493103182
 21
331.3142398145669
 72
     1
 10
120.0738493103182
 20
331.3142398145669
 11
118.67112509257
 21
331.3142398145669
 72
     1
 10
118.67112509257
 20
331.3142398145669
 11
120.0690781395103
 21
332.8950988083419
 72
     1
 10
120.0690781395103
 20
332.8950988083419
 11
118.7665485087428
 21
334.3680493383781
 72
     1
 10
118.7665485087428
 20
334.3680493383781
 11
120.1692727264921
 21
334.3680493383781
 72
     1
 10
120.1692727264921
 20
334.3680493383781
 11
120.7704402483839
 21
333.6882260168226
 72
     1
 10
120.7704402483839
 20
333.6882260168226
 11
121.3716077702767
 21
334.3680493383781
 72
     1
 10
121.3716077702767
 20
334.3680493383781
 11
122.7743319880239
 21
334.3680493383781
 97
       12
330
183
330
182
330
181
330
1DE
330
1DF
330
1DB
330
1DC
330
187
330
186
330
185
330
184
330
1DD
 75
     1
 76
     0
 52
45.0
 41
0.1
 77
     0
 78
     1
 53
45.0
 43
0.0
 44
0.0
 45
-0.0707106781186548
 46
0.0707106781186548
 79
     0
 98
        1
 10
0.0
 20
0.0
  0
HATCH
  5
25C
330
71
100
AcDbEntity
  8
1
  6
Continuous
 62
     2
100
AcDbHatch
 10
0.0
 20
0.0
 30
0.0
210
0.0
220
0.0
230
1.0
  2
_USER
 70
     0
 71
     1
 91
        1
 92
        1
 93
       12
 72
     1
 10
122.7743319880239
 20
334.3680493383781
 11
121.4718023572574
 21
332.8950988083419
 72
     1
 10
121.4718023572574
 20
332.8950988083419
 11
122.8697554041977
 21
331.3142398145669
 72
     1
 10
122.8697554041977
 20
331.3142398145669
 11
121.4670311864494
 21
331.3142398145669
 72
     1
 10
121.4670311864494
 20
331.3142398145669
 11
120.7704402483839
 21
332.1019715998606
 72
     1
 10
120.7704402483839
 20
332.1019715998606
 11
120.0738493103182
 21
331.3142398145669
 72
     1
 10
120.0738493103182
 20
331.3142398145669
 11
118.67112509257
 21
331.3142398145669
 72
     1
 10
118.67112509257
 20
331.3142398145669
 11
120.0690781395103
 21
332.8950988083419
 72
     1
 10
120.0690781395103
 20
332.8950988083419
 11
118.7665485087428
 21
334.3680493383781
 72
     1
 10
118.7665485087428
 20
334.3680493383781
 11
120.1692727264921
 21
334.3680493383781
 72
     1
 10
120.1692727264921
 20
334.3680493383781
 11
120.7704402483839
 21
333.6882260168226
 72
     1
 10
120.7704402483839
 20
333.6882260168226
 11
121.3716077702767
 21
334.3680493383781
 72
     1
 10
121.3716077702767
 20
334.3680493383781
 11
122.7743319880239
 21
334.3680493383781
 97
       12
330
183
330
182
330
181
330
1DE
330
1DF
330
1DB
330
1DC
330
187
330
186
330
185
330
184
330
1DD
 75
     1
 76
     0
 52
45.0
 41
0.1
 77
     0
 78
     1
 53
45.0
 43
0.0
 44
0.0
 45
-0.0707106781186548
 46
0.0707106781186548
 79
     0
 98
        1
 10
0.0
 20
0.0
  0
HATCH
  5
25D
330
71
100
AcDbEntity
  8
1
  6
Continuous
 62
     2
100
AcDbHatch
 10
0.0
 20
0.0
 30
0.0
210
0.0
220
0.0
230
1.0
  2
_USER
 70
     0
 71
     1
 91
        2
 92
        1
 93
        6
 72
     1
 10
103.7565965738779
 20
332.2573180557107
 11
102.9978289860976
 21
332.2573180557107
 72
     1
 10
102.9978289860976
 20
332.2573180557107
 11
102.9978289860976
 21
331.3142398145669
 72
     1
 10
102.9978289860976
 20
331.3142398145669
 11
101.7573245758435
 21
331.3142398145669
 72
     1
 10
101.7573245758435
 20
331.3142398145669
 11
101.7573245758435
 21
334.3680493383781
 72
     1
 10
101.7573245758435
 20
334.3680493383781
 11
103.7565965738779
 21
334.3680493383781
 72
     2
 10
103.7565965738779
 20
333.3126836970444
 40
1.055365641333708
 50
270.0
 51
450.0
 73
     0
 97
        6
330
1AB
330
1AA
330
1B7
330
1B6
330
1AC
330
1FC
 92
       16
 93
        4
 72
     2
 10
103.3151240476395
 20
333.3520796682669
 40
0.3528638246711466
 50
270.0
 51
450.0
 73
     1
 72
     1
 10
103.3151240476395
 20
333.704943492938
 11
102.9978289860976
 21
333.704943492938
 72
     1
 10
102.9978289860976
 20
333.704943492938
 11
102.9978289860976
 21
332.9992158435958
 72
     1
 10
102.9978289860976
 20
332.9992158435958
 11
103.3151240476395
 21
332.9992158435958
 97
        4
330
210
330
1A8
330
1B8
330
1A9
 75
     1
 76
     0
 52
45.0
 41
0.1
 77
     0
 78
     1
 53
45.0
 43
0.0
 44
0.0
 45
-0.0707106781186548
 46
0.0707106781186548
 79
     0
 98
        1
 10
0.0
 20
0.0
  0
HATCH
  5
25E
330
71
100
AcDbEntity
  8
1
  6
Continuous
 62
     2
100
AcDbHatch
 10
0.0
 20
0.0
 30
0.0
210
0.0
220
0.0
230
1.0
  2
_USER
 70
     0
 71
     1
 91
        2
 92
        1
 93
        6
 72
     1
 10
103.7565965738779
 20
332.2573180557107
 11
102.9978289860976
 21
332.2573180557107
 72
     1
 10
102.9978289860976
 20
332.2573180557107
 11
102.9978289860976
 21
331.3142398145669
 72
     1
 10
102.9978289860976
 20
331.3142398145669
 11
101.7573245758435
 21
331.3142398145669
 72
     1
 10
101.7573245758435
 20
331.3142398145669
 11
101.7573245758435
 21
334.3680493383781
 72
     1
 10
101.7573245758435
 20
334.3680493383781
 11
103.7565965738779
 21
334.3680493383781
 72
     2
 10
103.7565965738779
 20
333.3126836970444
 40
1.055365641333708
 50
270.0
 51
450.0
 73
     0
 97
        6
330
1AB
330
1AA
330
1B7
330
1B6
330
1AC
330
1FC
 92
       16
 93
        4
 72
     2
 10
103.3151240476395
 20
333.3520796682669
 40
0.3528638246711466
 50
270.0
 51
450.0
 73
     1
 72
     1
 10
103.3151240476395
 20
333.704943492938
 11
102.9978289860976
 21
333.704943492938
 72
     1
 10
102.9978289860976
 20
333.704943492938
 11
102.9978289860976
 21
332.9992158435958
 72
     1
 10
102.9978289860976
 20
332.9992158435958
 11
103.3151240476395
 21
332.9992158435958
 97
        4
330
210
330
1A8
330
1B8
330
1A9
 75
     1
 76
     0
 52
45.0
 41
0.1
 77
     0
 78
     1
 53
45.0
 43
0.0
 44
0.0
 45
-0.0707106781186548
 46
0.0707106781186548
 79
     0
 98
        1
 10
0.0
 20
0.0
  0
HATCH
  5
25F
330
71
100
AcDbEntity
  8
1
  6
Continuous
 62
     2
100
AcDbHatch
 10
0.0
 20
0.0
 30
0.0
210
0.0
220
0.0
230
1.0
  2
_USER
 70
     0
 71
     1
 91
        2
 92
        1
 93
        4
 72
     2
 10
106.313139322237
 20
328.9433790899951
 40
2.065479772208543
 50
62.451851824306
 51
117.5481481756671
 73
     1
 72
     2
 10
106.0321994304037
 20
329.4819541002979
 40
1.458034083651465
 50
117.548148175663
 51
242.451851824338
 73
     1
 72
     2
 10
106.313139322237
 20
330.0205291106012
 40
2.065479772208541
 50
242.4518518243402
 51
297.5481481756867
 73
     1
 72
     2
 10
106.5940792140703
 20
329.4819541002979
 40
1.458034083652028
 50
297.5481481757005
 51
422.4518518242985
 73
     1
 97
        4
330
208
330
207
330
209
330
206
 92
       16
 93
        4
 72
     2
 10
106.1133992858906
 20
329.4819541002979
 40
0.7717997786797187
 50
321.8795802028378
 51
398.1204197971522
 73
     1
 72
     2
 10
106.313139322237
 20
329.6386852784184
 40
0.5179085730132887
 50
38.120419797148
 51
141.8795802028598
 73
     1
 72
     2
 10
106.5128793585831
 20
329.4819541002979
 40
0.7717997786794568
 50
141.8795802028386
 51
218.1204197971714
 73
     1
 72
     2
 10
106.313139322237
 20
329.3252229221779
 40
0.5179085730137641
 50
218.1204197971947
 51
321.8795802027976
 73
     1
 97
        4
330
224
330
221
330
222
330
223
 75
     1
 76
     0
 52
45.0
 41
0.1
 77
     0
 78
     1
 53
45.0
 43
0.0
 44
0.0
 45
-0.0707106781186548
 46
0.0707106781186548
 79
     0
 98
        1
 10
0.0
 20
0.0
  0
HATCH
  5
260
330
71
100
AcDbEntity
  8
1
  6
Continuous
 62
     2
100
AcDbHatch
 10
0.0
 20
0.0
 30
0.0
210
0.0
220
0.0
230
1.0
  2
_USER
 70
     0
 71
     1
 91
        2
 92
        1
 93
        4
 72
     2
 10
106.313139322237
 20
328.9433790899951
 40
2.065479772208543
 50
62.451851824306
 51
117.5481481756671
 73
     1
 72
     2
 10
106.0321994304037
 20
329.4819541002979
 40
1.458034083651465
 50
117.548148175663
 51
242.451851824338
 73
     1
 72
     2
 10
106.313139322237
 20
330.0205291106012
 40
2.065479772208541
 50
242.4518518243402
 51
297.5481481756867
 73
     1
 72
     2
 10
106.5940792140703
 20
329.4819541002979
 40
1.458034083652028
 50
297.5481481757005
 51
422.4518518242985
 73
     1
 97
        4
330
208
330
207
330
209
330
206
 92
       16
 93
        4
 72
     2
 10
106.1133992858906
 20
329.4819541002979
 40
0.7717997786797187
 50
321.8795802028378
 51
398.1204197971522
 73
     1
 72
     2
 10
106.313139322237
 20
329.6386852784184
 40
0.5179085730132887
 50
38.120419797148
 51
141.8795802028598
 73
     1
 72
     2
 10
106.5128793585831
 20
329.4819541002979
 40
0.7717997786794568
 50
141.8795802028386
 51
218.1204197971714
 73
     1
 72
     2
 10
106.313139322237
 20
329.3252229221779
 40
0.5179085730137641
 50
218.1204197971947
 51
321.8795802027976
 73
     1
 97
        4
330
224
330
221
330
222
330
223
 75
     1
 76
     0
 52
45.0
 41
0.1
 77
     0
 78
     1
 53
45.0
 43
0.0
 44
0.0
 45
-0.0707106781186548
 46
0.0707106781186548
 79
     0
 98
        1
 10
0.0
 20
0.0
  0
HATCH
  5
261
330
71
100
AcDbEntity
  8
1
  6
Continuous
 62
     2
100
AcDbHatch
 10
0.0
 20
0.0
 30
0.0
210
0.0
220
0.0
230
1.0
  2
_USER
 70
     0
 71
     1
 91
        2
 92
        1
 93
       12
 72
     1
 10
113.2081345166463
 20
333.6700357329351
 11
111.8722066902186
 21
333.6700357329351
 72
     1
 10
111.8722066902186
 20
333.6700357329351
 11
111.8722066902186
 21
333.1901513791934
 72
     1
 10
111.8722066902186
 20
333.1901513791934
 11
113.2081345166463
 21
333.1901513791934
 72
     1
 10
113.2081345166463
 20
333.1901513791934
 11
113.2081345166463
 21
332.4921377737511
 72
     1
 10
113.2081345166463
 20
332.4921377737511
 11
111.8722066902186
 21
332.4921377737511
 72
     1
 10
111.8722066902186
 20
332.4921377737511
 11
111.8722066902186
 21
332.0122534200094
 72
     1
 10
111.8722066902186
 20
332.0122534200094
 11
113.2081345166463
 21
332.0122534200094
 72
     1
 10
113.2081345166463
 20
332.0122534200094
 11
113.2081345166463
 21
331.3142398145669
 72
     1
 10
113.2081345166463
 20
331.3142398145669
 11
110.0578147928653
 21
331.3142398145669
 72
     2
 10
110.0578147928653
 20
332.8411445764722
 40
1.526904761905939
 50
90.0
 51
270.0
 73
     0
 72
     1
 10
110.0578147928653
 20
334.3680493383781
 11
113.2081345166463
 21
334.3680493383781
 72
     1
 10
113.2081345166463
 20
334.3680493383781
 11
113.2081345166463
 21
333.6700357329351
 97
       12
330
1BF
330
211
330
1C0
330
1C1
330
1C2
330
1C3
330
1A0
330
19F
330
19E
330
19D
330
1C4
330
1BE
 92
       16
 93
        4
 72
     2
 10
110.2740868030305
 20
332.9978757545927
 40
0.5179085730135266
 50
38.12041979714334
 51
141.8795802028499
 73
     1
 72
     2
 10
110.4738268393768
 20
332.8411445764722
 40
0.7717997786797187
 50
141.8795802028378
 51
218.1204197971522
 73
     1
 72
     2
 10
110.2740868030305
 20
332.6844133983518
 40
0.5179085730134483
 50
218.1204197971501
 51
321.8795802028566
 73
     1
 72
     2
 10
110.0743467666843
 20
332.8411445764722
 40
0.7717997786796135
 50
321.8795802028478
 51
398.1204197971622
 73
     1
 97
        4
330
20B
330
20A
330
205
330
204
 75
     1
 76
     0
 52
45.0
 41
0.1
 77
     0
 78
     1
 53
45.0
 43
0.0
 44
0.0
 45
-0.0707106781186548
 46
0.0707106781186548
 79
     0
 98
        1
 10
0.0
 20
0.0
  0
HATCH
  5
262
330
71
100
AcDbEntity
  8
1
  6
Continuous
 62
     2
100
AcDbHatch
 10
0.0
 20
0.0
 30
0.0
210
0.0
220
0.0
230
1.0
  2
_USER
 70
     0
 71
     1
 91
        2
 92
        1
 93
       12
 72
     1
 10
113.2081345166463
 20
333.6700357329351
 11
111.8722066902186
 21
333.6700357329351
 72
     1
 10
111.8722066902186
 20
333.6700357329351
 11
111.8722066902186
 21
333.1901513791934
 72
     1
 10
111.8722066902186
 20
333.1901513791934
 11
113.2081345166463
 21
333.1901513791934
 72
     1
 10
113.2081345166463
 20
333.1901513791934
 11
113.2081345166463
 21
332.4921377737511
 72
     1
 10
113.2081345166463
 20
332.4921377737511
 11
111.8722066902186
 21
332.4921377737511
 72
     1
 10
111.8722066902186
 20
332.4921377737511
 11
111.8722066902186
 21
332.0122534200094
 72
     1
 10
111.8722066902186
 20
332.0122534200094
 11
113.2081345166463
 21
332.0122534200094
 72
     1
 10
113.2081345166463
 20
332.0122534200094
 11
113.2081345166463
 21
331.3142398145669
 72
     1
 10
113.2081345166463
 20
331.3142398145669
 11
110.0578147928653
 21
331.3142398145669
 72
     2
 10
110.0578147928653
 20
332.8411445764722
 40
1.526904761905939
 50
90.0
 51
270.0
 73
     0
 72
     1
 10
110.0578147928653
 20
334.3680493383781
 11
113.2081345166463
 21
334.3680493383781
 72
     1
 10
113.2081345166463
 20
334.3680493383781
 11
113.2081345166463
 21
333.6700357329351
 97
       12
330
1BF
330
211
330
1C0
330
1C1
330
1C2
330
1C3
330
1A0
330
19F
330
19E
330
19D
330
1C4
330
1BE
 92
       16
 93
        4
 72
     2
 10
110.2740868030305
 20
332.9978757545927
 40
0.5179085730135266
 50
38.12041979714334
 51
141.8795802028499
 73
     1
 72
     2
 10
110.4738268393768
 20
332.8411445764722
 40
0.7717997786797187
 50
141.8795802028378
 51
218.1204197971522
 73
     1
 72
     2
 10
110.2740868030305
 20
332.6844133983518
 40
0.5179085730134483
 50
218.1204197971501
 51
321.8795802028566
 73
     1
 72
     2
 10
110.0743467666843
 20
332.8411445764722
 40
0.7717997786796135
 50
321.8795802028478
 51
398.1204197971622
 73
     1
 97
        4
330
20B
330
20A
330
205
330
204
 75
     1
 76
     0
 52
45.0
 41
0.1
 77
     0
 78
     1
 53
45.0
 43
0.0
 44
0.0
 45
-0.0707106781186548
 46
0.0707106781186548
 79
     0
 98
        1
 10
0.0
 20
0.0
  0
HATCH
  5
263
330
71
100
AcDbEntity
  8
1
  6
Continuous
 62
     2
100
AcDbHatch
 10
0.0
 20
0.0
 30
0.0
210
0.0
220
0.0
230
1.0
  2
_USER
 70
     0
 71
     1
 91
        4
 92
        1
 93
        8
 72
     1
 10
101.2802074949767
 20
333.9438047229761
 11
101.2802074949767
 21
328.3792939537759
 72
     2
 10
100.8559628795928
 20
328.3792939537759
 40
0.4242446153833157
 50
0.0
 51
90.0
 73
     0
 72
     1
 10
100.8559628795928
 20
327.9550493383926
 11
95.38265078887599
 21
327.9550493383926
 72
     2
 10
95.38265078887599
 20
328.3792939537759
 40
0.4242446153828041
 50
90.0
 51
180.0
 73
     0
 72
     1
 10
94.95840617349319
 20
328.3792939537759
 11
94.95840617349319
 21
333.9438047229761
 72
     2
 10
95.38265078887599
 20
333.9438047229761
 40
0.4242446153838273
 50
180.0
 51
270.0
 73
     0
 72
     1
 10
95.38265078887599
 20
334.3680493383599
 11
100.8559628795928
 21
334.3680493383599
 72
     2
 10
100.8559628795928
 20
333.9438047229761
 40
0.4242446153838983
 50
270.0
 51
360.0
 73
     0
 97
        8
330
1B3
330
201
330
1B4
330
20C
330
1B1
330
203
330
1B2
330
202
 92
       16
 93
        1
 72
     2
 10
98.0022364393935
 20
331.6249224946206
 40
0.4709789327785074
 50
0.0
 51
360.0
 73
     1
 97
        1
330
227
 92
       16
 93
        8
 72
     2
 10
98.55209415215418
 20
330.5157808946522
 40
0.3157169230765328
 50
115.3740086783519
 51
180.0
 73
     1
 72
     1
 10
98.23637722907739
 20
330.5157808946522
 11
98.23637722907739
 21
329.9339294879571
 72
     2
 10
98.55209415215418
 20
329.9339294879571
 40
0.315716923076792
 50
180.0
 51
269.8110329574541
 73
     1
 72
     2
 10
98.5577102874642
 20
331.6367644355261
 40
2.018561131933266
 50
269.8110329575858
 51
450.1889670424142
 73
     1
 72
     2
 10
98.55209415215418
 20
333.3395993830952
 40
0.3157169230760711
 50
90.18896704254594
 51
180.0
 73
     1
 72
     1
 10
98.23637722907739
 20
333.3395993830952
 11
98.23637722907739
 21
332.7340640945884
 72
     2
 10
98.55209415215418
 20
332.7340640945884
 40
0.315716923076792
 50
180.0
 51
244.6259913216482
 73
     1
 72
     2
 10
98.0260514540663
 20
331.6249224946206
 40
0.9118481501444333
 50
295.3740086781925
 51
424.6259913218228
 73
     0
 97
        8
330
219
330
17A
330
216
330
217
330
1F5
330
179
330
218
330
1F4
 92
       16
 93
       12
 72
     2
 10
95.97654546562248
 20
328.9833218170262
 40
0.3157169230756836
 50
180.0
 51
270.0
 73
     1
 72
     1
 10
95.97654546562248
 20
328.6676048939495
 11
97.4523787266321
 21
328.6676048939495
 72
     2
 10
97.4523787266321
 20
328.9833218170262
 40
0.3157169230767067
 50
270.0
 51
360.0
 73
     1
 72
     1
 10
97.7680956497087
 20
328.9833218170262
 11
97.7680956497087
 21
330.5140927485578
 72
     2
 10
97.4523787266321
 20
330.5140927485578
 40
0.315716923076593
 50
0.0
 51
64.80558935146027
 73
     1
 72
     2
 10
97.97496317420709
 20
331.6249224946206
 40
0.9118975235575889
 50
115.1944106485122
 51
244.805589351471
 73
     0
 72
     2
 10
97.4523787266321
 20
332.7357522406828
 40
0.3157169230761717
 50
295.1944106485354
 51
360.0
 73
     1
 72
     1
 10
97.7680956497087
 20
332.7357522406828
 11
97.7680956497087
 21
333.3397768597433
 72
     2
 10
97.4523787266321
 20
333.3397768597433
 40
0.315716923076593
 50
0.0
 51
90.0
 73
     1
 72
     1
 10
97.4523787266321
 20
333.6554937828195
 11
95.97654546562248
 21
333.6554937828195
 72
     2
 10
95.97654546562248
 20
333.3397768597433
 40
0.3157169230761951
 50
90.0
 51
180.0
 73
     1
 72
     1
 10
95.6608285425468
 20
333.3397768597433
 11
95.6608285425468
 21
328.9833218170262
 97
       12
330
1FD
330
1B5
330
200
330
1B0
330
20D
330
20E
330
1FF
330
1AF
330
1FE
330
1AE
330
20F
330
1AD
 75
     1
 76
     0
 52
45.0
 41
0.1
 77
     0
 78
     1
 53
45.0
 43
0.0
 44
0.0
 45
-0.0707106781186548
 46
0.0707106781186548
 79
     0
 98
        1
 10
0.0
 20
0.0
  0
HATCH
  5
264
330
71
100
AcDbEntity
  8
1
  6
Continuous
 62
     2
100
AcDbHatch
 10
0.0
 20
0.0
 30
0.0
210
0.0
220
0.0
230
1.0
  2
_USER
 70
     0
 71
     1
 91
        4
 92
        1
 93
        8
 72
     1
 10
101.2802074949767
 20
333.9438047229761
 11
101.2802074949767
 21
328.3792939537759
 72
     2
 10
100.8559628795928
 20
328.3792939537759
 40
0.4242446153833157
 50
0.0
 51
90.0
 73
     0
 72
     1
 10
100.8559628795928
 20
327.9550493383926
 11
95.38265078887599
 21
327.9550493383926
 72
     2
 10
95.38265078887599
 20
328.3792939537759
 40
0.4242446153828041
 50
90.0
 51
180.0
 73
     0
 72
     1
 10
94.95840617349319
 20
328.3792939537759
 11
94.95840617349319
 21
333.9438047229761
 72
     2
 10
95.38265078887599
 20
333.9438047229761
 40
0.4242446153838273
 50
180.0
 51
270.0
 73
     0
 72
     1
 10
95.38265078887599
 20
334.3680493383599
 11
100.8559628795928
 21
334.3680493383599
 72
     2
 10
100.8559628795928
 20
333.9438047229761
 40
0.4242446153838983
 50
270.0
 51
360.0
 73
     0
 97
        8
330
1B3
330
201
330
1B4
330
20C
330
1B1
330
203
330
1B2
330
202
 92
       16
 93
        1
 72
     2
 10
98.0022364393935
 20
331.6249224946206
 40
0.4709789327785074
 50
0.0
 51
360.0
 73
     1
 97
        1
330
227
 92
       16
 93
        8
 72
     2
 10
98.55209415215418
 20
330.5157808946522
 40
0.3157169230765328
 50
115.3740086783519
 51
180.0
 73
     1
 72
     1
 10
98.23637722907739
 20
330.5157808946522
 11
98.23637722907739
 21
329.9339294879571
 72
     2
 10
98.55209415215418
 20
329.9339294879571
 40
0.315716923076792
 50
180.0
 51
269.8110329574541
 73
     1
 72
     2
 10
98.5577102874642
 20
331.6367644355261
 40
2.018561131933266
 50
269.8110329575858
 51
450.1889670424142
 73
     1
 72
     2
 10
98.55209415215418
 20
333.3395993830952
 40
0.3157169230760711
 50
90.18896704254594
 51
180.0
 73
     1
 72
     1
 10
98.23637722907739
 20
333.3395993830952
 11
98.23637722907739
 21
332.7340640945884
 72
     2
 10
98.55209415215418
 20
332.7340640945884
 40
0.315716923076792
 50
180.0
 51
244.6259913216482
 73
     1
 72
     2
 10
98.0260514540663
 20
331.6249224946206
 40
0.9118481501444333
 50
295.3740086781925
 51
424.6259913218228
 73
     0
 97
        8
330
219
330
17A
330
216
330
217
330
1F5
330
179
330
218
330
1F4
 92
       16
 93
       12
 72
     2
 10
95.97654546562248
 20
328.9833218170262
 40
0.3157169230756836
 50
180.0
 51
270.0
 73
     1
 72
     1
 10
95.97654546562248
 20
328.6676048939495
 11
97.4523787266321
 21
328.6676048939495
 72
     2
 10
97.4523787266321
 20
328.9833218170262
 40
0.3157169230767067
 50
270.0
 51
360.0
 73
     1
 72
     1
 10
97.7680956497087
 20
328.9833218170262
 11
97.7680956497087
 21
330.5140927485578
 72
     2
 10
97.4523787266321
 20
330.5140927485578
 40
0.315716923076593
 50
0.0
 51
64.80558935146027
 73
     1
 72
     2
 10
97.97496317420709
 20
331.6249224946206
 40
0.9118975235575889
 50
115.1944106485122
 51
244.805589351471
 73
     0
 72
     2
 10
97.4523787266321
 20
332.7357522406828
 40
0.3157169230761717
 50
295.1944106485354
 51
360.0
 73
     1
 72
     1
 10
97.7680956497087
 20
332.7357522406828
 11
97.7680956497087
 21
333.3397768597433
 72
     2
 10
97.4523787266321
 20
333.3397768597433
 40
0.315716923076593
 50
0.0
 51
90.0
 73
     1
 72
     1
 10
97.4523787266321
 20
333.6554937828195
 11
95.97654546562248
 21
333.6554937828195
 72
     2
 10
95.97654546562248
 20
333.3397768597433
 40
0.3157169230761951
 50
90.0
 51
180.0
 73
     1
 72
     1
 10
95.6608285425468
 20
333.3397768597433
 11
95.6608285425468
 21
328.9833218170262
 97
       12
330
1FD
330
1B5
330
200
330
1B0
330
20D
330
20E
330
1FF
330
1AF
330
1FE
330
1AE
330
20F
330
1AD
 75
     1
 76
     0
 52
45.0
 41
0.1
 77
     0
 78
     1
 53
45.0
 43
0.0
 44
0.0
 45
-0.0707106781186548
 46
0.0707106781186548
 79
     0
 98
        1
 10
0.0
 20
0.0
  0
HATCH
  5
265
330
71
100
AcDbEntity
  8
1
  6
Continuous
 62
     2
100
AcDbHatch
 10
0.0
 20
0.0
 30
0.0
210
0.0
220
0.0
230
1.0
  2
_USER
 70
     0
 71
     1
 91
        1
 92
        1
 93
       18
 72
     1
 10
122.8697554041977
 20
330.2235935560801
 11
122.0586563667243
 21
330.2235935560801
 72
     1
 10
122.0586563667243
 20
330.2235935560801
 11
122.0586563667243
 21
327.9550493383926
 72
     1
 10
122.0586563667243
 20
327.9550493383926
 11
120.8658636645566
 21
327.9550493383926
 72
     1
 10
120.8658636645566
 20
327.9550493383926
 11
120.8658636645566
 21
330.2235935560801
 72
     1
 10
120.8658636645566
 20
330.2235935560801
 11
119.7622243649885
 21
330.2235935560801
 72
     2
 10
119.7622243649885
 20
329.269070549254
 40
0.9545230068260935
 50
90.0
 51
109.3371432194312
 73
     1
 72
     2
 10
119.6155543668848
 20
329.6870255296369
 40
0.5115800601944096
 50
109.3371432194838
 51
151.4785267424245
 73
     1
 72
     2
 10
119.9929116249662
 20
329.4819541002979
 40
0.9410597353348789
 50
151.478526742364
 51
208.5214732576695
 73
     1
 72
     2
 10
119.6155543668848
 20
329.2768826709594
 40
0.5115800601960091
 50
208.5214732576873
 51
246.6277221118464
 73
     1
 72
     2
 10
119.7719943995879
 20
329.6388746896694
 40
0.9059297849852744
 50
246.6277221118191
 51
288.4480761180806
 73
     1
 72
     2
 10
119.353826665926
 20
330.892420465706
 40
2.227384008972773
 50
288.4480761181333
 51
301.9309089499394
 73
     1
 72
     1
 10
120.5318817079499
 20
329.0020697465562
 11
120.5318817079499
 21
328.1295527397529
 72
     2
 10
119.1959537908332
 20
332.7946350455543
 40
4.852596863498824
 50
74.0200087416614
 51
84.8418552303638
 73
     0
 72
     2
 10
119.484809885569
 20
329.5947444623327
 40
1.639695123940434
 50
84.8418552303238
 51
164.9381082228987
 73
     0
 72
     2
 10
119.0656820421074
 20
329.4819541002979
 40
1.205656168392974
 50
164.9381082229026
 51
195.0618917770948
 73
     0
 72
     2
 10
119.484809885569
 20
329.369163738263
 40
1.639695123940214
 50
195.0618917771032
 51
270.0
 73
     0
 72
     1
 10
119.484809885569
 20
331.0088588622032
 11
122.8697554041977
 21
331.0088588622037
 72
     1
 10
122.8697554041977
 20
331.0088588622037
 11
122.8697554041977
 21
330.2235935560801
 97
       18
330
17C
330
212
330
213
330
1FB
330
1FA
330
1E0
330
1F9
330
1F8
330
214
330
1F7
330
215
330
1F6
330
1E1
330
17B
330
180
330
17F
330
17E
330
17D
 75
     1
 76
     0
 52
45.0
 41
0.1
 77
     0
 78
     1
 53
45.0
 43
0.0
 44
0.0
 45
-0.0707106781186548
 46
0.0707106781186548
 79
     0
 98
        1
 10
0.0
 20
0.0
  0
HATCH
  5
266
330
71
100
AcDbEntity
  8
1
  6
Continuous
 62
     2
100
AcDbHatch
 10
0.0
 20
0.0
 30
0.0
210
0.0
220
0.0
230
1.0
  2
_USER
 70
     0
 71
     1
 91
        1
 92
        1
 93
       18
 72
     1
 10
122.8697554041977
 20
330.2235935560801
 11
122.0586563667243
 21
330.2235935560801
 72
     1
 10
122.0586563667243
 20
330.2235935560801
 11
122.0586563667243
 21
327.9550493383926
 72
     1
 10
122.0586563667243
 20
327.9550493383926
 11
120.8658636645566
 21
327.9550493383926
 72
     1
 10
120.8658636645566
 20
327.9550493383926
 11
120.8658636645566
 21
330.2235935560801
 72
     1
 10
120.8658636645566
 20
330.2235935560801
 11
119.7622243649885
 21
330.2235935560801
 72
     2
 10
119.7622243649885
 20
329.269070549254
 40
0.9545230068260935
 50
90.0
 51
109.3371432194312
 73
     1
 72
     2
 10
119.6155543668848
 20
329.6870255296369
 40
0.5115800601944096
 50
109.3371432194838
 51
151.4785267424245
 73
     1
 72
     2
 10
119.9929116249662
 20
329.4819541002979
 40
0.9410597353348789
 50
151.478526742364
 51
208.5214732576695
 73
     1
 72
     2
 10
119.6155543668848
 20
329.2768826709594
 40
0.5115800601960091
 50
208.5214732576873
 51
246.6277221118464
 73
     1
 72
     2
 10
119.7719943995879
 20
329.6388746896694
 40
0.9059297849852744
 50
246.6277221118191
 51
288.4480761180806
 73
     1
 72
     2
 10
119.353826665926
 20
330.892420465706
 40
2.227384008972773
 50
288.4480761181333
 51
301.9309089499394
 73
     1
 72
     1
 10
120.5318817079499
 20
329.0020697465562
 11
120.5318817079499
 21
328.1295527397529
 72
     2
 10
119.1959537908332
 20
332.7946350455543
 40
4.852596863498824
 50
74.0200087416614
 51
84.8418552303638
 73
     0
 72
     2
 10
119.484809885569
 20
329.5947444623327
 40
1.639695123940434
 50
84.8418552303238
 51
164.9381082228987
 73
     0
 72
     2
 10
119.0656820421074
 20
329.4819541002979
 40
1.205656168392974
 50
164.9381082229026
 51
195.0618917770948
 73
     0
 72
     2
 10
119.484809885569
 20
329.369163738263
 40
1.639695123940214
 50
195.0618917771032
 51
270.0
 73
     0
 72
     1
 10
119.484809885569
 20
331.0088588622032
 11
122.8697554041977
 21
331.0088588622037
 72
     1
 10
122.8697554041977
 20
331.0088588622037
 11
122.8697554041977
 21
330.2235935560801
 97
       18
330
17C
330
212
330
213
330
1FB
330
1FA
330
1E0
330
1F9
330
1F8
330
214
330
1F7
330
215
330
1F6
330
1E1
330
17B
330
180
330
17F
330
17E
330
17D
 75
     1
 76
     0
 52
45.0
 41
0.1
 77
     0
 78
     1
 53
45.0
 43
0.0
 44
0.0
 45
-0.0707106781186548
 46
0.0707106781186548
 79
     0
 98
        1
 10
0.0
 20
0.0
  0
HATCH
  5
267
330
71
100
AcDbEntity
  8
1
  6
Continuous
 62
     2
100
AcDbHatch
 10
0.0
 20
0.0
 30
0.0
210
0.0
220
0.0
230
1.0
  2
_USER
 70
     0
 71
     1
 91
        1
 92
        1
 93
       14
 72
     2
 10
103.3821084063161
 20
329.369163738263
 40
1.639695123940507
 50
84.84185523036236
 51
164.9381082228885
 73
     1
 72
     2
 10
102.9629805628533
 20
329.4819541002979
 40
1.205656168390943
 50
164.9381082228792
 51
195.0618917770947
 73
     1
 72
     2
 10
103.3821084063161
 20
329.5947444623327
 40
1.639695123939394
 50
195.0618917770885
 51
275.1581447696396
 73
     1
 72
     2
 10
103.0932523115802
 20
332.7946350455543
 40
4.85259686349811
 50
275.158144769625
 51
285.9799912583529
 73
     1
 72
     1
 10
104.429180228698
 20
328.1295527397535
 11
104.429180228698
 21
329.0020697465567
 72
     2
 10
103.2511251866731
 20
330.8924204657066
 40
2.227384008972773
 50
58.06909105004051
 51
71.55192388186677
 73
     0
 72
     2
 10
103.6692929203339
 20
329.6388746896694
 40
0.9059297849849192
 50
71.55192388184128
 51
113.372277888129
 73
     0
 72
     2
 10
103.5128528876319
 20
329.2768826709594
 40
0.5115800601948034
 50
113.3722778881741
 51
151.4785267423044
 73
     0
 72
     2
 10
103.8902101457122
 20
329.4819541002979
 40
0.9410597353332545
 50
151.4785267422943
 51
208.5214732577331
 73
     0
 72
     2
 10
103.5128528876319
 20
329.6870255296369
 40
0.5115800601948574
 50
208.5214732576956
 51
246.6277221117982
 73
     0
 72
     2
 10
103.6692929203339
 20
329.3250335109263
 40
0.9059297849853273
 50
246.627722111871
 51
288.4480761181474
 73
     0
 72
     2
 10
103.2511251866731
 20
328.0714877348897
 40
2.227384008973517
 50
288.4480761181333
 51
301.9309089499595
 73
     0
 72
     1
 10
104.429180228698
 20
329.9618384540396
 11
104.429180228698
 21
330.8343554608429
 72
     2
 10
103.0932523115802
 20
326.169273155042
 40
4.852596863498095
 50
74.02000874164747
 51
84.84185523037509
 73
     1
 97
       14
330
21A
330
21B
330
21C
330
21D
330
1E2
330
1F3
330
1F2
330
1F1
330
21E
330
21F
330
1F0
330
220
330
1E3
330
1EF
 75
     1
 76
     0
 52
45.0
 41
0.1
 77
     0
 78
     1
 53
45.0
 43
0.0
 44
0.0
 45
-0.0707106781186548
 46
0.0707106781186548
 79
     0
 98
        1
 10
0.0
 20
0.0
  0
HATCH
  5
268
330
71
100
AcDbEntity
  8
1
  6
Continuous
 62
     2
100
AcDbHatch
 10
0.0
 20
0.0
 30
0.0
210
0.0
220
0.0
230
1.0
  2
_USER
 70
     0
 71
     1
 91
        1
 92
        1
 93
       14
 72
     2
 10
103.3821084063161
 20
329.369163738263
 40
1.639695123940507
 50
84.84185523036236
 51
164.9381082228885
 73
     1
 72
     2
 10
102.9629805628533
 20
329.4819541002979
 40
1.205656168390943
 50
164.9381082228792
 51
195.0618917770947
 73
     1
 72
     2
 10
103.3821084063161
 20
329.5947444623327
 40
1.639695123939394
 50
195.0618917770885
 51
275.1581447696396
 73
     1
 72
     2
 10
103.0932523115802
 20
332.7946350455543
 40
4.85259686349811
 50
275.158144769625
 51
285.9799912583529
 73
     1
 72
     1
 10
104.429180228698
 20
328.1295527397535
 11
104.429180228698
 21
329.0020697465567
 72
     2
 10
103.2511251866731
 20
330.8924204657066
 40
2.227384008972773
 50
58.06909105004051
 51
71.55192388186677
 73
     0
 72
     2
 10
103.6692929203339
 20
329.6388746896694
 40
0.9059297849849192
 50
71.55192388184128
 51
113.372277888129
 73
     0
 72
     2
 10
103.5128528876319
 20
329.2768826709594
 40
0.5115800601948034
 50
113.3722778881741
 51
151.4785267423044
 73
     0
 72
     2
 10
103.8902101457122
 20
329.4819541002979
 40
0.9410597353332545
 50
151.4785267422943
 51
208.5214732577331
 73
     0
 72
     2
 10
103.5128528876319
 20
329.6870255296369
 40
0.5115800601948574
 50
208.5214732576956
 51
246.6277221117982
 73
     0
 72
     2
 10
103.6692929203339
 20
329.3250335109263
 40
0.9059297849853273
 50
246.627722111871
 51
288.4480761181474
 73
     0
 72
     2
 10
103.2511251866731
 20
328.0714877348897
 40
2.227384008973517
 50
288.4480761181333
 51
301.9309089499595
 73
     0
 72
     1
 10
104.429180228698
 20
329.9618384540396
 11
104.429180228698
 21
330.8343554608429
 72
     2
 10
103.0932523115802
 20
326.169273155042
 40
4.852596863498095
 50
74.02000874164747
 51
84.84185523037509
 73
     1
 97
       14
330
21A
330
21B
330
21C
330
21D
330
1E2
330
1F3
330
1F2
330
1F1
330
21E
330
21F
330
1F0
330
220
330
1E3
330
1EF
 75
     1
 76
     0
 52
45.0
 41
0.1
 77
     0
 78
     1
 53
45.0
 43
0.0
 44
0.0
 45
-0.0707106781186548
 46
0.0707106781186548
 79
     0
 98
        1
 10
0.0
 20
0.0
  0
ENDBLK
  5
73
330
71
100
AcDbEntity
  8
0
100
AcDbBlockEnd
  0
BLOCK
  5
75
330
74
100
AcDbEntity
  8
0
100
AcDbBlockBegin
  2
_punkt
 70
     0
 10
220.2665558136806
 20
320.6615493383763
 30
0.0
  3
_punkt
  1

  0
LINE
  5
269
330
74
100
AcDbEntity
  8
1
  6
Continuous
 62
     2
100
AcDbLine
 10
220.2665558136806
 20
320.6615493383763
 30
0.0
 11
225.2665558136796
 21
320.6615493383763
 31
0.0
  0
LINE
  5
26A
330
74
100
AcDbEntity
  8
1
  6
Continuous
 62
     2
100
AcDbLine
 10
220.2665558136806
 20
320.6615493383763
 30
0.0
 11
220.2665558136806
 21
315.6615493383762
 31
0.0
  0
ENDBLK
  5
76
330
74
100
AcDbEntity
  8
0
100
AcDbBlockEnd
  0
BLOCK
  5
7A
330
77
100
AcDbEntity
  8
0
100
AcDbBlockBegin
  2
A4I_CS
 70
     0
 10
220.2665558136806
 20
315.6615493383762
 30
0.0
  3
A4I_CS
  1

  0
INSERT
  5
78
330
77
100
AcDbEntity
  8
1
100
AcDbBlockReference
  2
_rahmen
 10
220.2665558136806
 20
315.6615493383762
 30
0.0
  0
INSERT
  5
79
330
77
100
AcDbEntity
  8
1
100
AcDbBlockReference
  2
_punkt
 10
220.2665558136806
 20
320.6615493383763
 30
0.0
  0
ENDBLK
  5
7B
330
77
100
AcDbEntity
  8
0
100
AcDbBlockEnd
  0
BLOCK
  5
84
330
7C
100
AcDbEntity
  8
0
100
AcDbBlockBegin
  2
1
 70
     0
 10
0.0
 20
0.0
 30
0.0
  3
1
  1

  0
INSERT
  5
7D
330
7C
100
AcDbEntity
  8
0
100
AcDbBlockReference
  2
AllgSicht1
 10
188.0000000000011
 20
378.0
 30
0.0
  0
INSERT
  5
7E
330
7C
100
AcDbEntity
  8
0
100
AcDbBlockReference
  2
Drfsicht1
 10
37.99999999999501
 20
392.0000000000001
 30
0.0
  0
INSERT
  5
7F
330
7C
100
AcDbEntity
  8
0
100
AcDbBlockReference
  2
Rckans1
 10
158.4999961853139
 20
436.1000003814696
 30
0.0
  0
INSERT
  5
80
330
7C
100
AcDbEntity
  8
0
100
AcDbBlockReference
  2
SA_Links1
 10
99.24999809265137
 20
436.1000003814697
 30
0.0
  0
INSERT
  5
81
330
7C
100
AcDbEntity
  8
0
100
AcDbBlockReference
  2
SA_Rechts1
 10
-26.24999809265126
 20
441.1000003814697
 30
0.0
  0
INSERT
  5
82
330
7C
100
AcDbEntity
  8
0
100
AcDbBlockReference
  2
Vordans1
 10
37.99999999999487
 20
441.1000003814697
 30
0.0
  0
INSERT
  5
83
330
7C
100
AcDbEntity
  8
0
100
AcDbBlockReference
  2
A4I_CS
 10
220.2665558136806
 20
315.6615493383762
 30
0.0
  0
ENDBLK
  5
85
330
7C
100
AcDbEntity
  8
0
100
AcDbBlockEnd
  0
BLOCK
  5
C2
330
B8
100
AcDbEntity
  8
0
100
AcDbBlockBegin
  2
*D17
 70
     1
 10
0.0
 20
0.0
 30
0.0
  3
*D17
  1

  0
LINE
  5
B9
330
B8
100
AcDbEntity
  8
1
  6
Continuous
 62
     2
100
AcDbLine
 10
6.74999873676052
 20
402.026129665012
 30
0.0
 11
6.74999873676052
 21
392.7500000000001
 31
0.0
  0
LINE
  5
BA
330
B8
100
AcDbEntity
  8
1
  6
Continuous
 62
     2
100
AcDbLine
 10
6.74999873676052
 20
392.7500000000001
 30
0.0
 11
6.74999873676052
 21
391.2500000000002
 31
0.0
  0
LINE
  5
BB
330
B8
100
AcDbEntity
  8
1
  6
Continuous
 62
     2
100
AcDbLine
 10
6.74999873676052
 20
391.2500000000002
 30
0.0
 11
6.74999873676052
 21
384.2500000000002
 31
0.0
  0
LINE
  5
BC
330
B8
100
AcDbEntity
  8
1
  6
Continuous
 62
     2
100
AcDbLine
 10
16.74999873676052
 20
392.7500000000001
 30
0.0
 11
5.24999873676052
 21
392.7500000000001
 31
0.0
  0
LINE
  5
BD
330
B8
100
AcDbEntity
  8
1
  6
Continuous
 62
     2
100
AcDbLine
 10
16.74999873676052
 20
391.2500000000002
 30
0.0
 11
5.24999873676052
 21
391.2500000000002
 31
0.0
  0
SOLID
  5
BE
330
B8
100
AcDbEntity
  8
1
 62
     2
100
AcDbTrace
 10
6.28921499520464
 20
396.2500000000001
 30
0.0
 11
7.21078247831641
 21
396.2500000000001
 31
0.0
 12
6.74999873676052
 22
392.7500000000001
 32
0.0
 13
6.74999873676052
 23
392.7500000000001
 33
0.0
  0
SOLID
  5
BF
330
B8
100
AcDbEntity
  8
1
 62
     2
100
AcDbTrace
 10
7.21078247831641
 20
387.7500000000002
 30
0.0
 11
6.28921499520464
 21
387.7500000000002
 31
0.0
 12
6.74999873676052
 22
391.2500000000002
 32
0.0
 13
6.74999873676052
 23
391.2500000000002
 33
0.0
  0
MTEXT
  5
C1
330
B8
100
AcDbEntity
  8
1
 62
     3
100
AcDbMText
 10
4.89999873676052
 20
396.601129665012
 30
0.0
 40
3.5
 41
0.0
 71
     7
 72
     1
  1
1,5
  7
CONVERTER_11
 11
0.0
 21
1.0
 31
0.0
 73
     1
 44
0.60024009603842
  0
ENDBLK
  5
C3
330
B8
100
AcDbEntity
  8
0
100
AcDbBlockEnd
  0
BLOCK
  5
123
330
11C
100
AcDbEntity
  8
0
100
AcDbBlockBegin
  2
*D18
 70
     1
 10
0.0
 20
0.0
 30
0.0
  3
*D18
  1

  0
LINE
  5
11D
330
11C
100
AcDbEntity
  8
1
  6
Continuous
 62
     2
100
AcDbLine
 10
6.74999873676038
 20
462.4500004274946
 30
0.0
 11
6.74999873676038
 21
419.7500004274946
 31
0.0
  0
LINE
  5
11E
330
11C
100
AcDbEntity
  8
1
  6
Continuous
 62
     2
100
AcDbLine
 10
24.99999873676038
 20
462.4500004274946
 30
0.0
 11
5.24999873676038
 21
462.4500004274946
 31
0.0
  0
LINE
  5
11F
330
11C
100
AcDbEntity
  8
1
  6
Continuous
 62
     2
100
AcDbLine
 10
16.74999873676038
 20
419.7500004274946
 30
0.0
 11
5.24999873676038
 21
419.7500004274946
 31
0.0
  0
SOLID
  5
120
330
11C
100
AcDbEntity
  8
1
 62
     2
100
AcDbTrace
 10
7.21078247831626
 20
458.9500004274946
 30
0.0
 11
6.28921499520449
 21
458.9500004274946
 31
0.0
 12
6.74999873676038
 22
462.4500004274946
 32
0.0
 13
6.74999873676038
 23
462.4500004274946
 33
0.0
  0
SOLID
  5
121
330
11C
100
AcDbEntity
  8
1
 62
     2
100
AcDbTrace
 10
6.28921499520449
 20
423.2500004274946
 30
0.0
 11
7.21078247831626
 21
423.2500004274946
 31
0.0
 12
6.74999873676038
 22
419.7500004274946
 32
0.0
 13
6.74999873676038
 23
419.7500004274946
 33
0.0
  0
MTEXT
  5
122
330
11C
100
AcDbEntity
  8
1
 62
     3
100
AcDbMText
 10
4.89999873676038
 20
436.109419291371
 30
0.0
 40
3.5
 41
0.0
 71
     7
 72
     1
  1
42,7
  7
CONVERTER_11
 11
0.0
 21
1.0
 31
0.0
 73
     1
 44
0.60024009603842
  0
ENDBLK
  5
124
330
11C
100
AcDbEntity
  8
0
100
AcDbBlockEnd
  0
BLOCK
  5
12E
330
127
100
AcDbEntity
  8
0
100
AcDbBlockBegin
  2
*D19
 70
     1
 10
0.0
 20
0.0
 30
0.0
  3
*D19
  1

  0
LINE
  5
128
330
127
100
AcDbEntity
  8
1
  6
Continuous
 62
     2
100
AcDbLine
 10
16.74999873676038
 20
409.7500004274946
 30
0.0
 11
59.24999873676038
 21
409.7500004274946
 31
0.0
  0
LINE
  5
129
330
127
100
AcDbEntity
  8
1
  6
Continuous
 62
     2
100
AcDbLine
 10
16.74999873676038
 20
419.7500004274946
 30
0.0
 11
16.74999873676038
 21
408.2500004274946
 31
0.0
  0
LINE
  5
12A
330
127
100
AcDbEntity
  8
1
  6
Continuous
 62
     2
100
AcDbLine
 10
59.24999873676038
 20
419.7500004274946
 30
0.0
 11
59.24999873676038
 21
408.2500004274946
 31
0.0
  0
SOLID
  5
12B
330
127
100
AcDbEntity
  8
1
 62
     2
100
AcDbTrace
 10
20.24999873676038
 20
410.2107841690504
 30
0.0
 11
20.24999873676038
 21
409.2892166859387
 31
0.0
 12
16.74999873676038
 22
409.7500004274946
 32
0.0
 13
16.74999873676038
 23
409.7500004274946
 33
0.0
  0
SOLID
  5
12C
330
127
100
AcDbEntity
  8
1
 62
     2
100
AcDbTrace
 10
55.74999873676038
 20
409.2892166859387
 30
0.0
 11
55.74999873676038
 21
410.2107841690504
 31
0.0
 12
59.24999873676038
 22
409.7500004274946
 32
0.0
 13
59.24999873676038
 23
409.7500004274946
 33
0.0
  0
MTEXT
  5
12D
330
127
100
AcDbEntity
  8
1
 62
     3
100
AcDbMText
 10
33.32500070961087
 20
411.6000004274946
 30
0.0
 40
3.5
 41
0.0
 71
     7
 72
     1
  1
42,5
  7
CONVERTER_11
 11
0.9999999999970619
 21
2.424068405545306E-6
 31
0.0
 73
     1
 44
0.60024009603842
  0
ENDBLK
  5
12F
330
127
100
AcDbEntity
  8
0
100
AcDbBlockEnd
  0
ENDSEC
  0
SECTION
  2
ENTITIES
  0
INSERT
  5
86
330
1F
100
AcDbEntity
  8
1
100
AcDbBlockReference
  2
1
 10
0.0
 20
0.0
 30
0.0
  0
ENDSEC
  0
SECTION
  2
OBJECTS
  0
DICTIONARY
  5
C
330
0
100
AcDbDictionary
281
     1
  3
ACAD_GROUP
350
D
  3
ACAD_LAYOUT
350
1A
  3
ACAD_MATERIAL
350
3B
  3
ACAD_MLEADERSTYLE
350
292
  3
ACAD_MLINESTYLE
350
17
  3
ACAD_PLOTSETTINGS
350
19
  3
ACAD_PLOTSTYLENAME
350
E
  3
ACAD_TABLESTYLE
350
291
  3
ACAD_VISUALSTYLE
350
2A
  0
DICTIONARY
  5
D
102
{ACAD_REACTORS
330
C
102
}
330
C
100
AcDbDictionary
281
     1
  0
DICTIONARY
  5
1A
102
{ACAD_REACTORS
330
C
102
}
330
C
100
AcDbDictionary
281
     1
  3
Layout1
350
1E
  3
Layout2
350
26
  3
Model
350
22
  0
DICTIONARY
  5
3B
102
{ACAD_REACTORS
330
C
102
}
330
C
100
AcDbDictionary
281
     1
  3
ByBlock
350
3D
  3
ByLayer
350
3C
  3
Global
350
3E
  0
DICTIONARY
  5
292
102
{ACAD_REACTORS
330
C
102
}
330
C
100
AcDbDictionary
281
     1
  0
DICTIONARY
  5
17
102
{ACAD_REACTORS
330
C
102
}
330
C
100
AcDbDictionary
281
     1
  3
Standard
350
18
  0
DICTIONARY
  5
19
102
{ACAD_REACTORS
330
C
102
}
330
C
100
AcDbDictionary
281
     1
  0
ACDBDICTIONARYWDFLT
  5
E
102
{ACAD_REACTORS
330
C
102
}
330
C
100
AcDbDictionary
281
     1
  3
Normal
350
F
100
AcDbDictionaryWithDefault
340
F
  0
DICTIONARY
  5
291
102
{ACAD_REACTORS
330
C
102
}
330
C
100
AcDbDictionary
281
     1
  0
DICTIONARY
  5
2A
102
{ACAD_REACTORS
330
C
102
}
330
C
100
AcDbDictionary
281
     1
  3
2dWireframe
350
2F
  3
3D Hidden
350
31
  3
3dWireframe
350
30
  3
Basic
350
32
  3
Brighten
350
36
  3
ColorChange
350
3A
  3
Conceptual
350
34
  3
Dim
350
35
  3
Facepattern
350
39
  3
Flat
350
2B
  3
FlatWithEdges
350
2C
  3
Gouraud
350
2D
  3
GouraudWithEdges
350
2E
  3
Linepattern
350
38
  3
Realistic
350
33
  3
Thicken
350
37
  0
LAYOUT
  5
1E
102
{ACAD_REACTORS
330
1A
102
}
330
1A
100
AcDbPlotSettings
  1

  2
none_device
  4

  6

 40
0.0
 41
0.0
 42
0.0
 43
0.0
 44
0.0
 45
0.0
 46
0.0
 47
0.0
 48
0.0
 49
0.0
140
0.0
141
0.0
142
1.0
143
1.0
 70
   688
 72
     0
 73
     0
 74
     5
  7

 75
    16
 76
     0
 77
     2
 78
   300
147
1.0
148
0.0
149
0.0
100
AcDbLayout
  1
Layout1
 70
     1
 71
     1
 10
0.0
 20
0.0
 11
12.0
 21
9.0
 12
0.0
 22
0.0
 32
0.0
 14
1.00000000000000E+20
 24
1.00000000000000E+20
 34
1.00000000000000E+20
 15
-1.00000000000000E+20
 25
-1.00000000000000E+20
 35
-1.00000000000000E+20
146
0.0
 13
0.0
 23
0.0
 33
0.0
 16
1.0
 26
0.0
 36
0.0
 17
0.0
 27
1.0
 37
0.0
 76
     0
330
1B
  0
LAYOUT
  5
26
102
{ACAD_REACTORS
330
1A
102
}
330
1A
100
AcDbPlotSettings
  1

  2
none_device
  4

  6

 40
0.0
 41
0.0
 42
0.0
 43
0.0
 44
0.0
 45
0.0
 46
0.0
 47
0.0
 48
0.0
 49
0.0
140
0.0
141
0.0
142
1.0
143
1.0
 70
   688
 72
     0
 73
     0
 74
     5
  7

 75
    16
 76
     0
 77
     2
 78
   300
147
1.0
148
0.0
149
0.0
100
AcDbLayout
  1
Layout2
 70
     1
 71
     2
 10
0.0
 20
0.0
 11
0.0
 21
0.0
 12
0.0
 22
0.0
 32
0.0
 14
0.0
 24
0.0
 34
0.0
 15
0.0
 25
0.0
 35
0.0
146
0.0
 13
0.0
 23
0.0
 33
0.0
 16
1.0
 26
0.0
 36
0.0
 17
0.0
 27
1.0
 37
0.0
 76
     0
330
23
  0
LAYOUT
  5
22
102
{ACAD_REACTORS
330
1A
102
}
330
1A
100
AcDbPlotSettings
  1

  2
none_device
  4

  6

 40
0.0
 41
0.0
 42
0.0
 43
0.0
 44
0.0
 45
0.0
 46
0.0
 47
0.0
 48
0.0
 49
0.0
140
0.0
141
0.0
142
1.0
143
1.0
 70
  1712
 72
     0
 73
     0
 74
     0
  7

 75
     0
 76
     0
 77
     2
 78
   300
147
1.0
148
0.0
149
0.0
100
AcDbLayout
  1
Model
 70
     1
 71
     0
 10
0.0
 20
0.0
 11
12.0
 21
9.0
 12
0.0
 22
0.0
 32
0.0
 14
-71.73344418631848
 24
315.6615493383762
 34
0.0
 15
225.2665558136796
 25
525.6615493383763
 35
0.0
146
0.0
 13
0.0
 23
0.0
 33
0.0
 16
1.0
 26
0.0
 36
0.0
 17
0.0
 27
1.0
 37
0.0
 76
     0
330
1F
331
29
  0
MATERIAL
  5
3D
102
{ACAD_REACTORS
330
3B
102
}
102
{ACAD_XDICTIONARY
360
28D
102
}
330
3B
100
AcDbMaterial
  1
ByBlock
  0
MATERIAL
  5
3C
102
{ACAD_REACTORS
330
3B
102
}
102
{ACAD_XDICTIONARY
360
28B
102
}
330
3B
100
AcDbMaterial
  1
ByLayer
  0
MATERIAL
  5
3E
102
{ACAD_REACTORS
330
3B
102
}
102
{ACAD_XDICTIONARY
360
28F
102
}
330
3B
100
AcDbMaterial
  1
Global
  0
MLINESTYLE
  5
18
102
{ACAD_REACTORS
330
17
102
}
330
17
100
AcDbMlineStyle
  2
Standard
 70
     0
  3

 62
   256
 51
90.0
 52
90.0
 71
     2
 49
0.5
 62
   256
  6
BYLAYER
 49
-0.5
 62
   256
  6
BYLAYER
  0
ACDBPLACEHOLDER
  5
F
102
{ACAD_REACTORS
330
E
102
}
330
E
  0
VISUALSTYLE
  5
2F
102
{ACAD_REACTORS
330
2A
102
}
102
{ACAD_XDICTIONARY
360
273
102
}
330
2A
100
AcDbVisualStyle
  2
2dWireframe
 70
     4
 71
     0
 72
     2
 73
     0
 90
        0
 40
-0.6
 41
-30.0
 62
     5
 63
     7
421
 16777215
 74
     1
 91
        4
 64
     7
 65
   257
 75
     1
175
     1
 42
1.0
 92
        0
 66
   257
 43
1.0
 76
     1
 77
     6
 78
     2
 67
     7
 79
     5
170
     0
171
     0
290
     0
174
     0
 93
        1
 44
0.0
173
     0
291
     0
 45
0.0
1001
ACAD
1000
AcDbSavedByObjectVersion
1070
     0
  0
VISUALSTYLE
  5
31
102
{ACAD_REACTORS
330
2A
102
}
102
{ACAD_XDICTIONARY
360
277
102
}
330
2A
100
AcDbVisualStyle
  2
3D Hidden
 70
     6
 71
     1
 72
     2
 73
     2
 90
        0
 40
-0.6
 41
-30.0
 62
     5
 63
     7
421
 16777215
 74
     2
 91
        2
 64
     7
 65
   257
 75
     2
175
     1
 42
40.0
 92
        0
 66
   257
 43
1.0
 76
     1
 77
     6
 78
     2
 67
     7
 79
     3
170
     0
171
     0
290
     0
174
     0
 93
        1
 44
0.0
173
     0
291
     0
 45
0.0
1001
ACAD
1000
AcDbSavedByObjectVersion
1070
     0
  0
VISUALSTYLE
  5
30
102
{ACAD_REACTORS
330
2A
102
}
102
{ACAD_XDICTIONARY
360
275
102
}
330
2A
100
AcDbVisualStyle
  2
3dWireframe
 70
     5
 71
     0
 72
     2
 73
     0
 90
        0
 40
-0.6
 41
-30.0
 62
     5
 63
     7
421
 16777215
 74
     1
 91
        4
 64
     7
 65
   257
 75
     1
175
     1
 42
1.0
 92
        0
 66
   257
 43
1.0
 76
     1
 77
     6
 78
     2
 67
     7
 79
     5
170
     0
171
     0
290
     0
174
     0
 93
        1
 44
0.0
173
     0
291
     0
 45
0.0
1001
ACAD
1000
AcDbSavedByObjectVersion
1070
     0
  0
VISUALSTYLE
  5
32
102
{ACAD_REACTORS
330
2A
102
}
102
{ACAD_XDICTIONARY
360
279
102
}
330
2A
100
AcDbVisualStyle
  2
Basic
 70
     7
 71
     1
 72
     0
 73
     1
 90
        0
 40
-0.6
 41
-30.0
 62
     5
 63
     7
421
 16777215
 74
     0
 91
        4
 64
     7
 65
   257
 75
     1
175
     1
 42
1.0
 92
        8
 66
     7
 43
1.0
 76
     1
 77
     6
 78
     2
 67
     7
 79
     5
170
     0
171
     0
290
     0
174
     0
 93
        1
 44
0.0
173
     0
291
     1
 45
0.0
1001
ACAD
1000
AcDbSavedByObjectVersion
1070
     0
  0
VISUALSTYLE
  5
36
102
{ACAD_REACTORS
330
2A
102
}
102
{ACAD_XDICTIONARY
360
281
102
}
330
2A
100
AcDbVisualStyle
  2
Brighten
 70
    12
 71
     2
 72
     2
 73
     0
 90
        0
 40
-0.6
 41
-30.0
 62
     5
 63
     7
421
 16777215
 74
     1
 91
        4
 64
     7
 65
   257
 75
     1
175
     1
 42
1.0
 92
        8
 66
     7
 43
1.0
 76
     1
 77
     6
 78
     2
 67
     7
 79
     5
170
     0
171
     0
290
     0
174
     0
 93
        1
 44
50.0
173
     0
291
     1
 45
0.0
1001
ACAD
1000
AcDbSavedByObjectVersion
1070
     0
  0
VISUALSTYLE
  5
3A
102
{ACAD_REACTORS
330
2A
102
}
102
{ACAD_XDICTIONARY
360
289
102
}
330
2A
100
AcDbVisualStyle
  2
ColorChange
 70
    16
 71
     2
 72
     2
 73
     3
 90
        0
 40
-0.6
 41
-30.0
 62
     5
 63
     8
421
  8421504
 74
     1
 91
        4
 64
     7
 65
   257
 75
     1
175
     1
 42
1.0
 92
        8
 66
     8
424
  8421504
 43
1.0
 76
     1
 77
     6
 78
     2
 67
     7
 79
     5
170
     0
171
     0
290
     0
174
     0
 93
        1
 44
0.0
173
     0
291
     1
 45
0.0
1001
ACAD
1000
AcDbSavedByObjectVersion
1070
     0
  0
VISUALSTYLE
  5
34
102
{ACAD_REACTORS
330
2A
102
}
102
{ACAD_XDICTIONARY
360
27D
102
}
330
2A
100
AcDbVisualStyle
  2
Conceptual
 70
     9
 71
     3
 72
     2
 73
     0
 90
        0
 40
-0.6
 41
-30.0
 62
     5
 63
     7
421
 16777215
 74
     2
 91
        2
 64
     7
 65
   257
 75
     1
175
     1
 42
40.0
 92
        8
 66
     7
 43
1.0
 76
     1
 77
     6
 78
     2
 67
     7
 79
     3
170
     0
171
     0
290
     0
174
     0
 93
        1
 44
0.0
173
     0
291
     0
 45
0.0
1001
ACAD
1000
AcDbSavedByObjectVersion
1070
     0
  0
VISUALSTYLE
  5
35
102
{ACAD_REACTORS
330
2A
102
}
102
{ACAD_XDICTIONARY
360
27F
102
}
330
2A
100
AcDbVisualStyle
  2
Dim
 70
    11
 71
     2
 72
     2
 73
     0
 90
        0
 40
-0.6
 41
-30.0
 62
     5
 63
     7
421
 16777215
 74
     1
 91
        4
 64
     7
 65
   257
 75
     1
175
     1
 42
1.0
 92
        8
 66
     7
 43
1.0
 76
     1
 77
     6
 78
     2
 67
     7
 79
     5
170
     0
171
     0
290
     0
174
     0
 93
        1
 44
-50.0
173
     0
291
     1
 45
0.0
1001
ACAD
1000
AcDbSavedByObjectVersion
1070
     0
  0
VISUALSTYLE
  5
39
102
{ACAD_REACTORS
330
2A
102
}
102
{ACAD_XDICTIONARY
360
287
102
}
330
2A
100
AcDbVisualStyle
  2
Facepattern
 70
    15
 71
     2
 72
     2
 73
     0
 90
        0
 40
-0.6
 41
-30.0
 62
     5
 63
     7
421
 16777215
 74
     1
 91
        4
 64
     7
 65
   257
 75
     1
175
     1
 42
1.0
 92
        8
 66
     7
 43
1.0
 76
     1
 77
     6
 78
     2
 67
     7
 79
     5
170
     0
171
     0
290
     0
174
     0
 93
        1
 44
0.0
173
     0
291
     1
 45
0.0
1001
ACAD
1000
AcDbSavedByObjectVersion
1070
     0
  0
VISUALSTYLE
  5
2B
102
{ACAD_REACTORS
330
2A
102
}
102
{ACAD_XDICTIONARY
360
26B
102
}
330
2A
100
AcDbVisualStyle
  2
Flat
 70
     0
 71
     2
 72
     1
 73
     1
 90
        2
 40
-0.6
 41
30.0
 62
     5
 63
     7
421
 16777215
 74
     0
 91
        4
 64
     7
 65
   257
 75
     1
175
     1
 42
1.0
 92
        8
 66
     7
 43
1.0
 76
     1
 77
     6
 78
     2
 67
     7
 79
     5
170
     0
171
     0
290
     0
174
     0
 93
       13
 44
0.0
173
     0
291
     1
 45
0.0
1001
ACAD
1000
AcDbSavedByObjectVersion
1070
     0
  0
VISUALSTYLE
  5
2C
102
{ACAD_REACTORS
330
2A
102
}
102
{ACAD_XDICTIONARY
360
26D
102
}
330
2A
100
AcDbVisualStyle
  2
FlatWithEdges
 70
     1
 71
     2
 72
     1
 73
     1
 90
        2
 40
-0.6
 41
30.0
 62
     5
 63
     7
421
 16777215
 74
     1
 91
        4
 64
     7
 65
   257
 75
     1
175
     1
 42
1.0
 92
        0
 66
   257
 43
1.0
 76
     1
 77
     6
 78
     2
 67
     7
 79
     5
170
     0
171
     0
290
     0
174
     0
 93
       13
 44
0.0
173
     0
291
     1
 45
0.0
1001
ACAD
1000
AcDbSavedByObjectVersion
1070
     0
  0
VISUALSTYLE
  5
2D
102
{ACAD_REACTORS
330
2A
102
}
102
{ACAD_XDICTIONARY
360
26F
102
}
330
2A
100
AcDbVisualStyle
  2
Gouraud
 70
     2
 71
     2
 72
     2
 73
     1
 90
        2
 40
-0.6
 41
30.0
 62
     5
 63
     7
421
 16777215
 74
     0
 91
        4
 64
     7
 65
   257
 75
     1
175
     1
 42
1.0
 92
        0
 66
     7
 43
1.0
 76
     1
 77
     6
 78
     2
 67
     7
 79
     5
170
     0
171
     0
290
     0
174
     0
 93
       13
 44
0.0
173
     0
291
     1
 45
0.0
1001
ACAD
1000
AcDbSavedByObjectVersion
1070
     0
  0
VISUALSTYLE
  5
2E
102
{ACAD_REACTORS
330
2A
102
}
102
{ACAD_XDICTIONARY
360
271
102
}
330
2A
100
AcDbVisualStyle
  2
GouraudWithEdges
 70
     3
 71
     2
 72
     2
 73
     1
 90
        2
 40
-0.6
 41
30.0
 62
     5
 63
     7
421
 16777215
 74
     1
 91
        4
 64
     7
 65
   257
 75
     1
175
     1
 42
1.0
 92
        0
 66
   257
 43
1.0
 76
     1
 77
     6
 78
     2
 67
     7
 79
     5
170
     0
171
     0
290
     0
174
     0
 93
       13
 44
0.0
173
     0
291
     1
 45
0.0
1001
ACAD
1000
AcDbSavedByObjectVersion
1070
     0
  0
VISUALSTYLE
  5
38
102
{ACAD_REACTORS
330
2A
102
}
102
{ACAD_XDICTIONARY
360
285
102
}
330
2A
100
AcDbVisualStyle
  2
Linepattern
 70
    14
 71
     2
 72
     2
 73
     0
 90
        0
 40
-0.6
 41
-30.0
 62
     5
 63
     7
421
 16777215
 74
     1
 91
        4
 64
     7
 65
   257
 75
     7
175
     7
 42
1.0
 92
        8
 66
     7
 43
1.0
 76
     1
 77
     6
 78
     2
 67
     7
 79
     5
170
     0
171
     0
290
     0
174
     0
 93
        1
 44
0.0
173
     0
291
     1
 45
0.0
1001
ACAD
1000
AcDbSavedByObjectVersion
1070
     0
  0
VISUALSTYLE
  5
33
102
{ACAD_REACTORS
330
2A
102
}
102
{ACAD_XDICTIONARY
360
27B
102
}
330
2A
100
AcDbVisualStyle
  2
Realistic
 70
     8
 71
     2
 72
     2
 73
     0
 90
        0
 40
-0.6
 41
-30.0
 62
     5
 63
     7
421
 16777215
 74
     1
 91
        0
 64
     7
 65
   257
 75
     1
175
     1
 42
1.0
 92
        8
 66
     8
424
  7895160
 43
1.0
 76
     1
 77
     6
 78
     2
 67
     7
 79
     5
170
     0
171
     0
290
     0
174
     0
 93
       13
 44
0.0
173
     0
291
     0
 45
0.0
1001
ACAD
1000
AcDbSavedByObjectVersion
1070
     0
  0
VISUALSTYLE
  5
37
102
{ACAD_REACTORS
330
2A
102
}
102
{ACAD_XDICTIONARY
360
283
102
}
330
2A
100
AcDbVisualStyle
  2
Thicken
 70
    13
 71
     2
 72
     2
 73
     0
 90
        0
 40
-0.6
 41
-30.0
 62
     5
 63
     7
421
 16777215
 74
     1
 91
        4
 64
     7
 65
   257
 75
     1
175
     1
 42
1.0
 92
       12
 66
     7
 43
1.0
 76
     1
 77
     6
 78
     2
 67
     7
 79
     5
170
     0
171
     0
290
     0
174
     0
 93
        1
 44
0.0
173
     0
291
     1
 45
0.0
1001
ACAD
1000
AcDbSavedByObjectVersion
1070
     0
  0
DICTIONARY
  5
28D
330
3D
100
AcDbDictionary
280
     1
281
     1
  3
ACAD_XREC_ROUNDTRIP
360
28E
  0
DICTIONARY
  5
28B
330
3C
100
AcDbDictionary
280
     1
281
     1
  3
ACAD_XREC_ROUNDTRIP
360
28C
  0
DICTIONARY
  5
28F
330
3E
100
AcDbDictionary
280
     1
281
     1
  3
ACAD_XREC_ROUNDTRIP
360
290
  0
DICTIONARY
  5
273
330
2F
100
AcDbDictionary
280
     1
281
     1
  3
ACAD_XREC_ROUNDTRIP
360
274
  0
DICTIONARY
  5
277
330
31
100
AcDbDictionary
280
     1
281
     1
  3
ACAD_XREC_ROUNDTRIP
360
278
  0
DICTIONARY
  5
275
330
30
100
AcDbDictionary
280
     1
281
     1
  3
ACAD_XREC_ROUNDTRIP
360
276
  0
DICTIONARY
  5
279
330
32
100
AcDbDictionary
280
     1
281
     1
  3
ACAD_XREC_ROUNDTRIP
360
27A
  0
DICTIONARY
  5
281
330
36
100
AcDbDictionary
280
     1
281
     1
  3
ACAD_XREC_ROUNDTRIP
360
282
  0
DICTIONARY
  5
289
330
3A
100
AcDbDictionary
280
     1
281
     1
  3
ACAD_XREC_ROUNDTRIP
360
28A
  0
DICTIONARY
  5
27D
330
34
100
AcDbDictionary
280
     1
281
     1
  3
ACAD_XREC_ROUNDTRIP
360
27E
  0
DICTIONARY
  5
27F
330
35
100
AcDbDictionary
280
     1
281
     1
  3
ACAD_XREC_ROUNDTRIP
360
280
  0
DICTIONARY
  5
287
330
39
100
AcDbDictionary
280
     1
281
     1
  3
ACAD_XREC_ROUNDTRIP
360
288
  0
DICTIONARY
  5
26B
330
2B
100
AcDbDictionary
280
     1
281
     1
  3
ACAD_XREC_ROUNDTRIP
360
26C
  0
DICTIONARY
  5
26D
330
2C
100
AcDbDictionary
280
     1
281
     1
  3
ACAD_XREC_ROUNDTRIP
360
26E
  0
DICTIONARY
  5
26F
330
2D
100
AcDbDictionary
280
     1
281
     1
  3
ACAD_XREC_ROUNDTRIP
360
270
  0
DICTIONARY
  5
271
330
2E
100
AcDbDictionary
280
     1
281
     1
  3
ACAD_XREC_ROUNDTRIP
360
272
  0
DICTIONARY
  5
285
330
38
100
AcDbDictionary
280
     1
281
     1
  3
ACAD_XREC_ROUNDTRIP
360
286
  0
DICTIONARY
  5
27B
330
33
100
AcDbDictionary
280
     1
281
     1
  3
ACAD_XREC_ROUNDTRIP
360
27C
  0
DICTIONARY
  5
283
330
37
100
AcDbDictionary
280
     1
281
     1
  3
ACAD_XREC_ROUNDTRIP
360
284
  0
XRECORD
  5
28E
102
{ACAD_REACTORS
330
28D
102
}
330
28D
100
AcDbXrecord
280
     1
102
MATERIAL
148
0.0
149
0.0
149
0.0
 93
        0
 94
      127
282
     0
 72
     1
 77
     1
171
     1
175
     1
179
     1
273
     0
  0
XRECORD
  5
28C
102
{ACAD_REACTORS
330
28B
102
}
330
28B
100
AcDbXrecord
280
     1
102
MATERIAL
148
0.0
149
0.0
149
0.0
 93
        0
 94
      127
282
     0
 72
     1
 77
     1
171
     1
175
     1
179
     1
273
     0
  0
XRECORD
  5
290
102
{ACAD_REACTORS
330
28F
102
}
330
28F
100
AcDbXrecord
280
     1
102
MATERIAL
148
0.0
149
0.0
149
0.0
 93
        0
 94
      127
282
     0
 72
     1
 77
     1
171
     1
175
     1
179
     1
273
     0
  0
XRECORD
  5
274
102
{ACAD_REACTORS
330
273
102
}
330
273
100
AcDbXrecord
280
     1
102
RTVSPropertyOp0
 70
     1
102
RTVSPropertyOp1
 70
     1
102
RTVSPropertyOp2
 70
     1
102
RTVSPropertyOp3
 70
     1
102
RTVSPropertyOp4
 70
     1
102
RTVSPropertyOp5
 70
     1
102
RTVSPropertyOp6
 70
     1
102
RTVSPropertyOp7
 70
     1
102
RTVSPropertyOp8
 70
     1
102
RTVSPropertyOp9
 70
     1
102
RTVSPropertyOp10
 70
     1
102
RTVSPropertyOp11
 70
     1
102
RTVSPropertyOp12
 70
     1
102
RTVSPropertyOp13
 70
     1
102
RTVSPropertyOp14
 70
     1
102
RTVSPropertyOp15
 70
     1
102
RTVSPropertyOp16
 70
     1
102
RTVSPropertyOp17
 70
     1
102
RTVSPropertyOp18
 70
     1
102
RTVSPropertyOp19
 70
     1
102
RTVSPropertyOp20
 70
     1
102
RTVSPropertyOp21
 70
     1
102
RTVSPropertyOp22
 70
     1
102
RTVSPropertyOp23
 70
     1
102
RTVSPropertyOp24
 70
     1
102
RTVSPropertyOp25
 70
     1
102
RTVSPropertyOp26
 70
     1
102
RTVSPropertyOp27
 70
     1
102
RTVSPropertyOp28
 70
     1
102
RTVSPropertyOp29
 70
     1
102
RTVSPropertyOp30
 70
     1
102
RTVSPropertyOp31
 70
     1
102
RTVSPropertyOp32
 70
     1
  0
XRECORD
  5
278
102
{ACAD_REACTORS
330
277
102
}
330
277
100
AcDbXrecord
280
     1
102
RTVSPropertyOp0
 70
     1
102
RTVSPropertyOp1
 70
     1
102
RTVSPropertyOp2
 70
     1
102
RTVSPropertyOp3
 70
     1
102
RTVSPropertyOp4
 70
     1
102
RTVSPropertyOp5
 70
     1
102
RTVSPropertyOp6
 70
     1
102
RTVSPropertyOp7
 70
     1
102
RTVSPropertyOp8
 70
     1
102
RTVSPropertyOp9
 70
     1
102
RTVSPropertyOp10
 70
     1
102
RTVSPropertyOp11
 70
     1
102
RTVSPropertyOp12
 70
     1
102
RTVSPropertyOp13
 70
     1
102
RTVSPropertyOp14
 70
     1
102
RTVSPropertyOp15
 70
     1
102
RTVSPropertyOp16
 70
     1
102
RTVSPropertyOp17
 70
     1
102
RTVSPropertyOp18
 70
     1
102
RTVSPropertyOp19
 70
     1
102
RTVSPropertyOp20
 70
     1
102
RTVSPropertyOp21
 70
     1
102
RTVSPropertyOp22
 70
     1
102
RTVSPropertyOp23
 70
     1
102
RTVSPropertyOp24
 70
     1
102
RTVSPropertyOp25
 70
     1
102
RTVSPropertyOp26
 70
     1
102
RTVSPropertyOp27
 70
     1
102
RTVSPropertyOp28
 70
     1
102
RTVSPropertyOp29
 70
     1
102
RTVSPropertyOp30
 70
     1
102
RTVSPropertyOp31
 70
     1
102
RTVSPropertyOp32
 70
     1
  0
XRECORD
  5
276
102
{ACAD_REACTORS
330
275
102
}
330
275
100
AcDbXrecord
280
     1
102
RTVSPropertyOp0
 70
     1
102
RTVSPropertyOp1
 70
     1
102
RTVSPropertyOp2
 70
     1
102
RTVSPropertyOp3
 70
     1
102
RTVSPropertyOp4
 70
     1
102
RTVSPropertyOp5
 70
     1
102
RTVSPropertyOp6
 70
     1
102
RTVSPropertyOp7
 70
     1
102
RTVSPropertyOp8
 70
     1
102
RTVSPropertyOp9
 70
     1
102
RTVSPropertyOp10
 70
     1
102
RTVSPropertyOp11
 70
     1
102
RTVSPropertyOp12
 70
     1
102
RTVSPropertyOp13
 70
     1
102
RTVSPropertyOp14
 70
     1
102
RTVSPropertyOp15
 70
     1
102
RTVSPropertyOp16
 70
     1
102
RTVSPropertyOp17
 70
     1
102
RTVSPropertyOp18
 70
     1
102
RTVSPropertyOp19
 70
     1
102
RTVSPropertyOp20
 70
     1
102
RTVSPropertyOp21
 70
     1
102
RTVSPropertyOp22
 70
     1
102
RTVSPropertyOp23
 70
     1
102
RTVSPropertyOp24
 70
     1
102
RTVSPropertyOp25
 70
     1
102
RTVSPropertyOp26
 70
     1
102
RTVSPropertyOp27
 70
     1
102
RTVSPropertyOp28
 70
     1
102
RTVSPropertyOp29
 70
     1
102
RTVSPropertyOp30
 70
     1
102
RTVSPropertyOp31
 70
     1
102
RTVSPropertyOp32
 70
     1
  0
XRECORD
  5
27A
102
{ACAD_REACTORS
330
279
102
}
330
279
100
AcDbXrecord
280
     1
102
RTVSPropertyOp0
 70
     1
102
RTVSPropertyOp1
 70
     1
102
RTVSPropertyOp2
 70
     1
102
RTVSPropertyOp3
 70
     1
102
RTVSPropertyOp4
 70
     1
102
RTVSPropertyOp5
 70
     1
102
RTVSPropertyOp6
 70
     1
102
RTVSPropertyOp7
 70
     1
102
RTVSPropertyOp8
 70
     1
102
RTVSPropertyOp9
 70
     1
102
RTVSPropertyOp10
 70
     1
102
RTVSPropertyOp11
 70
     1
102
RTVSPropertyOp12
 70
     1
102
RTVSPropertyOp13
 70
     1
102
RTVSPropertyOp14
 70
     1
102
RTVSPropertyOp15
 70
     1
102
RTVSPropertyOp16
 70
     1
102
RTVSPropertyOp17
 70
     1
102
RTVSPropertyOp18
 70
     1
102
RTVSPropertyOp19
 70
     1
102
RTVSPropertyOp20
 70
     1
102
RTVSPropertyOp21
 70
     1
102
RTVSPropertyOp22
 70
     1
102
RTVSPropertyOp23
 70
     1
102
RTVSPropertyOp24
 70
     1
102
RTVSPropertyOp25
 70
     1
102
RTVSPropertyOp26
 70
     1
102
RTVSPropertyOp27
 70
     1
102
RTVSPropertyOp28
 70
     1
102
RTVSPropertyOp29
 70
     1
102
RTVSPropertyOp30
 70
     1
102
RTVSPropertyOp31
 70
     1
102
RTVSPropertyOp32
 70
     1
  0
XRECORD
  5
282
102
{ACAD_REACTORS
330
281
102
}
330
281
100
AcDbXrecord
280
     1
102
RTVSPropertyOp0
 70
     1
102
RTVSPropertyOp1
 70
     1
102
RTVSPropertyOp2
 70
     1
102
RTVSPropertyOp3
 70
     1
102
RTVSPropertyOp4
 70
     1
102
RTVSPropertyOp5
 70
     1
102
RTVSPropertyOp6
 70
     1
102
RTVSPropertyOp7
 70
     1
102
RTVSPropertyOp8
 70
     1
102
RTVSPropertyOp9
 70
     1
102
RTVSPropertyOp10
 70
     1
102
RTVSPropertyOp11
 70
     1
102
RTVSPropertyOp12
 70
     1
102
RTVSPropertyOp13
 70
     1
102
RTVSPropertyOp14
 70
     1
102
RTVSPropertyOp15
 70
     1
102
RTVSPropertyOp16
 70
     1
102
RTVSPropertyOp17
 70
     1
102
RTVSPropertyOp18
 70
     1
102
RTVSPropertyOp19
 70
     1
102
RTVSPropertyOp20
 70
     1
102
RTVSPropertyOp21
 70
     1
102
RTVSPropertyOp22
 70
     1
102
RTVSPropertyOp23
 70
     1
102
RTVSPropertyOp24
 70
     1
102
RTVSPropertyOp25
 70
     1
102
RTVSPropertyOp26
 70
     1
102
RTVSPropertyOp27
 70
     1
102
RTVSPropertyOp28
 70
     1
102
RTVSPropertyOp29
 70
     1
102
RTVSPropertyOp30
 70
     1
102
RTVSPropertyOp31
 70
     1
102
RTVSPropertyOp32
 70
     1
  0
XRECORD
  5
28A
102
{ACAD_REACTORS
330
289
102
}
330
289
100
AcDbXrecord
280
     1
102
RTVSPropertyOp0
 70
     1
102
RTVSPropertyOp1
 70
     1
102
RTVSPropertyOp2
 70
     1
102
RTVSPropertyOp3
 70
     1
102
RTVSPropertyOp4
 70
     1
102
RTVSPropertyOp5
 70
     1
102
RTVSPropertyOp6
 70
     1
102
RTVSPropertyOp7
 70
     1
102
RTVSPropertyOp8
 70
     1
102
RTVSPropertyOp9
 70
     1
102
RTVSPropertyOp10
 70
     1
102
RTVSPropertyOp11
 70
     1
102
RTVSPropertyOp12
 70
     1
102
RTVSPropertyOp13
 70
     1
102
RTVSPropertyOp14
 70
     1
102
RTVSPropertyOp15
 70
     1
102
RTVSPropertyOp16
 70
     1
102
RTVSPropertyOp17
 70
     1
102
RTVSPropertyOp18
 70
     1
102
RTVSPropertyOp19
 70
     1
102
RTVSPropertyOp20
 70
     1
102
RTVSPropertyOp21
 70
     1
102
RTVSPropertyOp22
 70
     1
102
RTVSPropertyOp23
 70
     1
102
RTVSPropertyOp24
 70
     1
102
RTVSPropertyOp25
 70
     1
102
RTVSPropertyOp26
 70
     1
102
RTVSPropertyOp27
 70
     1
102
RTVSPropertyOp28
 70
     1
102
RTVSPropertyOp29
 70
     1
102
RTVSPropertyOp30
 70
     1
102
RTVSPropertyOp31
 70
     1
102
RTVSPropertyOp32
 70
     1
  0
XRECORD
  5
27E
102
{ACAD_REACTORS
330
27D
102
}
330
27D
100
AcDbXrecord
280
     1
102
RTVSPropertyOp0
 70
     1
102
RTVSPropertyOp1
 70
     1
102
RTVSPropertyOp2
 70
     1
102
RTVSPropertyOp3
 70
     1
102
RTVSPropertyOp4
 70
     1
102
RTVSPropertyOp5
 70
     1
102
RTVSPropertyOp6
 70
     1
102
RTVSPropertyOp7
 70
     1
102
RTVSPropertyOp8
 70
     1
102
RTVSPropertyOp9
 70
     1
102
RTVSPropertyOp10
 70
     1
102
RTVSPropertyOp11
 70
     1
102
RTVSPropertyOp12
 70
     1
102
RTVSPropertyOp13
 70
     1
102
RTVSPropertyOp14
 70
     1
102
RTVSPropertyOp15
 70
     1
102
RTVSPropertyOp16
 70
     1
102
RTVSPropertyOp17
 70
     1
102
RTVSPropertyOp18
 70
     1
102
RTVSPropertyOp19
 70
     1
102
RTVSPropertyOp20
 70
     1
102
RTVSPropertyOp21
 70
     1
102
RTVSPropertyOp22
 70
     1
102
RTVSPropertyOp23
 70
     1
102
RTVSPropertyOp24
 70
     1
102
RTVSPropertyOp25
 70
     1
102
RTVSPropertyOp26
 70
     1
102
RTVSPropertyOp27
 70
     1
102
RTVSPropertyOp28
 70
     1
102
RTVSPropertyOp29
 70
     1
102
RTVSPropertyOp30
 70
     1
102
RTVSPropertyOp31
 70
     1
102
RTVSPropertyOp32
 70
     1
  0
XRECORD
  5
280
102
{ACAD_REACTORS
330
27F
102
}
330
27F
100
AcDbXrecord
280
     1
102
RTVSPropertyOp0
 70
     1
102
RTVSPropertyOp1
 70
     1
102
RTVSPropertyOp2
 70
     1
102
RTVSPropertyOp3
 70
     1
102
RTVSPropertyOp4
 70
     1
102
RTVSPropertyOp5
 70
     1
102
RTVSPropertyOp6
 70
     1
102
RTVSPropertyOp7
 70
     1
102
RTVSPropertyOp8
 70
     1
102
RTVSPropertyOp9
 70
     1
102
RTVSPropertyOp10
 70
     1
102
RTVSPropertyOp11
 70
     1
102
RTVSPropertyOp12
 70
     1
102
RTVSPropertyOp13
 70
     1
102
RTVSPropertyOp14
 70
     1
102
RTVSPropertyOp15
 70
     1
102
RTVSPropertyOp16
 70
     1
102
RTVSPropertyOp17
 70
     1
102
RTVSPropertyOp18
 70
     1
102
RTVSPropertyOp19
 70
     1
102
RTVSPropertyOp20
 70
     1
102
RTVSPropertyOp21
 70
     1
102
RTVSPropertyOp22
 70
     1
102
RTVSPropertyOp23
 70
     1
102
RTVSPropertyOp24
 70
     1
102
RTVSPropertyOp25
 70
     1
102
RTVSPropertyOp26
 70
     1
102
RTVSPropertyOp27
 70
     1
102
RTVSPropertyOp28
 70
     1
102
RTVSPropertyOp29
 70
     1
102
RTVSPropertyOp30
 70
     1
102
RTVSPropertyOp31
 70
     1
102
RTVSPropertyOp32
 70
     1
  0
XRECORD
  5
288
102
{ACAD_REACTORS
330
287
102
}
330
287
100
AcDbXrecord
280
     1
102
RTVSPropertyOp0
 70
     1
102
RTVSPropertyOp1
 70
     1
102
RTVSPropertyOp2
 70
     1
102
RTVSPropertyOp3
 70
     1
102
RTVSPropertyOp4
 70
     1
102
RTVSPropertyOp5
 70
     1
102
RTVSPropertyOp6
 70
     1
102
RTVSPropertyOp7
 70
     1
102
RTVSPropertyOp8
 70
     1
102
RTVSPropertyOp9
 70
     1
102
RTVSPropertyOp10
 70
     1
102
RTVSPropertyOp11
 70
     1
102
RTVSPropertyOp12
 70
     1
102
RTVSPropertyOp13
 70
     1
102
RTVSPropertyOp14
 70
     1
102
RTVSPropertyOp15
 70
     1
102
RTVSPropertyOp16
 70
     1
102
RTVSPropertyOp17
 70
     1
102
RTVSPropertyOp18
 70
     1
102
RTVSPropertyOp19
 70
     1
102
RTVSPropertyOp20
 70
     1
102
RTVSPropertyOp21
 70
     1
102
RTVSPropertyOp22
 70
     1
102
RTVSPropertyOp23
 70
     1
102
RTVSPropertyOp24
 70
     1
102
RTVSPropertyOp25
 70
     1
102
RTVSPropertyOp26
 70
     1
102
RTVSPropertyOp27
 70
     1
102
RTVSPropertyOp28
 70
     1
102
RTVSPropertyOp29
 70
     1
102
RTVSPropertyOp30
 70
     1
102
RTVSPropertyOp31
 70
     1
102
RTVSPropertyOp32
 70
     1
  0
XRECORD
  5
26C
102
{ACAD_REACTORS
330
26B
102
}
330
26B
100
AcDbXrecord
280
     1
102
RTVSPropertyOp0
 70
     1
102
RTVSPropertyOp1
 70
     1
102
RTVSPropertyOp2
 70
     1
102
RTVSPropertyOp3
 70
     1
102
RTVSPropertyOp4
 70
     1
102
RTVSPropertyOp5
 70
     1
102
RTVSPropertyOp6
 70
     1
102
RTVSPropertyOp7
 70
     1
102
RTVSPropertyOp8
 70
     1
102
RTVSPropertyOp9
 70
     1
102
RTVSPropertyOp10
 70
     1
102
RTVSPropertyOp11
 70
     1
102
RTVSPropertyOp12
 70
     1
102
RTVSPropertyOp13
 70
     1
102
RTVSPropertyOp14
 70
     1
102
RTVSPropertyOp15
 70
     1
102
RTVSPropertyOp16
 70
     1
102
RTVSPropertyOp17
 70
     1
102
RTVSPropertyOp18
 70
     1
102
RTVSPropertyOp19
 70
     1
102
RTVSPropertyOp20
 70
     1
102
RTVSPropertyOp21
 70
     1
102
RTVSPropertyOp22
 70
     1
102
RTVSPropertyOp23
 70
     1
102
RTVSPropertyOp24
 70
     1
102
RTVSPropertyOp25
 70
     1
102
RTVSPropertyOp26
 70
     1
102
RTVSPropertyOp27
 70
     1
102
RTVSPropertyOp28
 70
     1
102
RTVSPropertyOp29
 70
     1
102
RTVSPropertyOp30
 70
     1
102
RTVSPropertyOp31
 70
     1
102
RTVSPropertyOp32
 70
     1
  0
XRECORD
  5
26E
102
{ACAD_REACTORS
330
26D
102
}
330
26D
100
AcDbXrecord
280
     1
102
RTVSPropertyOp0
 70
     1
102
RTVSPropertyOp1
 70
     1
102
RTVSPropertyOp2
 70
     1
102
RTVSPropertyOp3
 70
     1
102
RTVSPropertyOp4
 70
     1
102
RTVSPropertyOp5
 70
     1
102
RTVSPropertyOp6
 70
     1
102
RTVSPropertyOp7
 70
     1
102
RTVSPropertyOp8
 70
     1
102
RTVSPropertyOp9
 70
     1
102
RTVSPropertyOp10
 70
     1
102
RTVSPropertyOp11
 70
     1
102
RTVSPropertyOp12
 70
     1
102
RTVSPropertyOp13
 70
     1
102
RTVSPropertyOp14
 70
     1
102
RTVSPropertyOp15
 70
     1
102
RTVSPropertyOp16
 70
     1
102
RTVSPropertyOp17
 70
     1
102
RTVSPropertyOp18
 70
     1
102
RTVSPropertyOp19
 70
     1
102
RTVSPropertyOp20
 70
     1
102
RTVSPropertyOp21
 70
     1
102
RTVSPropertyOp22
 70
     1
102
RTVSPropertyOp23
 70
     1
102
RTVSPropertyOp24
 70
     1
102
RTVSPropertyOp25
 70
     1
102
RTVSPropertyOp26
 70
     1
102
RTVSPropertyOp27
 70
     1
102
RTVSPropertyOp28
 70
     1
102
RTVSPropertyOp29
 70
     1
102
RTVSPropertyOp30
 70
     1
102
RTVSPropertyOp31
 70
     1
102
RTVSPropertyOp32
 70
     1
  0
XRECORD
  5
270
102
{ACAD_REACTORS
330
26F
102
}
330
26F
100
AcDbXrecord
280
     1
102
RTVSPropertyOp0
 70
     1
102
RTVSPropertyOp1
 70
     1
102
RTVSPropertyOp2
 70
     1
102
RTVSPropertyOp3
 70
     1
102
RTVSPropertyOp4
 70
     1
102
RTVSPropertyOp5
 70
     1
102
RTVSPropertyOp6
 70
     1
102
RTVSPropertyOp7
 70
     1
102
RTVSPropertyOp8
 70
     1
102
RTVSPropertyOp9
 70
     1
102
RTVSPropertyOp10
 70
     1
102
RTVSPropertyOp11
 70
     1
102
RTVSPropertyOp12
 70
     1
102
RTVSPropertyOp13
 70
     1
102
RTVSPropertyOp14
 70
     1
102
RTVSPropertyOp15
 70
     1
102
RTVSPropertyOp16
 70
     1
102
RTVSPropertyOp17
 70
     1
102
RTVSPropertyOp18
 70
     1
102
RTVSPropertyOp19
 70
     1
102
RTVSPropertyOp20
 70
     1
102
RTVSPropertyOp21
 70
     1
102
RTVSPropertyOp22
 70
     1
102
RTVSPropertyOp23
 70
     1
102
RTVSPropertyOp24
 70
     1
102
RTVSPropertyOp25
 70
     1
102
RTVSPropertyOp26
 70
     1
102
RTVSPropertyOp27
 70
     1
102
RTVSPropertyOp28
 70
     1
102
RTVSPropertyOp29
 70
     1
102
RTVSPropertyOp30
 70
     1
102
RTVSPropertyOp31
 70
     1
102
RTVSPropertyOp32
 70
     1
  0
XRECORD
  5
272
102
{ACAD_REACTORS
330
271
102
}
330
271
100
AcDbXrecord
280
     1
102
RTVSPropertyOp0
 70
     1
102
RTVSPropertyOp1
 70
     1
102
RTVSPropertyOp2
 70
     1
102
RTVSPropertyOp3
 70
     1
102
RTVSPropertyOp4
 70
     1
102
RTVSPropertyOp5
 70
     1
102
RTVSPropertyOp6
 70
     1
102
RTVSPropertyOp7
 70
     1
102
RTVSPropertyOp8
 70
     1
102
RTVSPropertyOp9
 70
     1
102
RTVSPropertyOp10
 70
     1
102
RTVSPropertyOp11
 70
     1
102
RTVSPropertyOp12
 70
     1
102
RTVSPropertyOp13
 70
     1
102
RTVSPropertyOp14
 70
     1
102
RTVSPropertyOp15
 70
     1
102
RTVSPropertyOp16
 70
     1
102
RTVSPropertyOp17
 70
     1
102
RTVSPropertyOp18
 70
     1
102
RTVSPropertyOp19
 70
     1
102
RTVSPropertyOp20
 70
     1
102
RTVSPropertyOp21
 70
     1
102
RTVSPropertyOp22
 70
     1
102
RTVSPropertyOp23
 70
     1
102
RTVSPropertyOp24
 70
     1
102
RTVSPropertyOp25
 70
     1
102
RTVSPropertyOp26
 70
     1
102
RTVSPropertyOp27
 70
     1
102
RTVSPropertyOp28
 70
     1
102
RTVSPropertyOp29
 70
     1
102
RTVSPropertyOp30
 70
     1
102
RTVSPropertyOp31
 70
     1
102
RTVSPropertyOp32
 70
     1
  0
XRECORD
  5
286
102
{ACAD_REACTORS
330
285
102
}
330
285
100
AcDbXrecord
280
     1
102
RTVSPropertyOp0
 70
     1
102
RTVSPropertyOp1
 70
     1
102
RTVSPropertyOp2
 70
     1
102
RTVSPropertyOp3
 70
     1
102
RTVSPropertyOp4
 70
     1
102
RTVSPropertyOp5
 70
     1
102
RTVSPropertyOp6
 70
     1
102
RTVSPropertyOp7
 70
     1
102
RTVSPropertyOp8
 70
     1
102
RTVSPropertyOp9
 70
     1
102
RTVSPropertyOp10
 70
     1
102
RTVSPropertyOp11
 70
     1
102
RTVSPropertyOp12
 70
     1
102
RTVSPropertyOp13
 70
     1
102
RTVSPropertyOp14
 70
     1
102
RTVSPropertyOp15
 70
     1
102
RTVSPropertyOp16
 70
     1
102
RTVSPropertyOp17
 70
     1
102
RTVSPropertyOp18
 70
     1
102
RTVSPropertyOp19
 70
     1
102
RTVSPropertyOp20
 70
     1
102
RTVSPropertyOp21
 70
     1
102
RTVSPropertyOp22
 70
     1
102
RTVSPropertyOp23
 70
     1
102
RTVSPropertyOp24
 70
     1
102
RTVSPropertyOp25
 70
     1
102
RTVSPropertyOp26
 70
     1
102
RTVSPropertyOp27
 70
     1
102
RTVSPropertyOp28
 70
     1
102
RTVSPropertyOp29
 70
     1
102
RTVSPropertyOp30
 70
     1
102
RTVSPropertyOp31
 70
     1
102
RTVSPropertyOp32
 70
     1
  0
XRECORD
  5
27C
102
{ACAD_REACTORS
330
27B
102
}
330
27B
100
AcDbXrecord
280
     1
102
RTVSPropertyOp0
 70
     1
102
RTVSPropertyOp1
 70
     1
102
RTVSPropertyOp2
 70
     1
102
RTVSPropertyOp3
 70
     1
102
RTVSPropertyOp4
 70
     1
102
RTVSPropertyOp5
 70
     1
102
RTVSPropertyOp6
 70
     1
102
RTVSPropertyOp7
 70
     1
102
RTVSPropertyOp8
 70
     1
102
RTVSPropertyOp9
 70
     1
102
RTVSPropertyOp10
 70
     1
102
RTVSPropertyOp11
 70
     1
102
RTVSPropertyOp12
 70
     1
102
RTVSPropertyOp13
 70
     1
102
RTVSPropertyOp14
 70
     1
102
RTVSPropertyOp15
 70
     1
102
RTVSPropertyOp16
 70
     1
102
RTVSPropertyOp17
 70
     1
102
RTVSPropertyOp18
 70
     1
102
RTVSPropertyOp19
 70
     1
102
RTVSPropertyOp20
 70
     1
102
RTVSPropertyOp21
 70
     1
102
RTVSPropertyOp22
 70
     1
102
RTVSPropertyOp23
 70
     1
102
RTVSPropertyOp24
 70
     1
102
RTVSPropertyOp25
 70
     1
102
RTVSPropertyOp26
 70
     1
102
RTVSPropertyOp27
 70
     1
102
RTVSPropertyOp28
 70
     1
102
RTVSPropertyOp29
 70
     1
102
RTVSPropertyOp30
 70
     1
102
RTVSPropertyOp31
 70
     1
102
RTVSPropertyOp32
 70
     1
  0
XRECORD
  5
284
102
{ACAD_REACTORS
330
283
102
}
330
283
100
AcDbXrecord
280
     1
102
RTVSPropertyOp0
 70
     1
102
RTVSPropertyOp1
 70
     1
102
RTVSPropertyOp2
 70
     1
102
RTVSPropertyOp3
 70
     1
102
RTVSPropertyOp4
 70
     1
102
RTVSPropertyOp5
 70
     1
102
RTVSPropertyOp6
 70
     1
102
RTVSPropertyOp7
 70
     1
102
RTVSPropertyOp8
 70
     1
102
RTVSPropertyOp9
 70
     1
102
RTVSPropertyOp10
 70
     1
102
RTVSPropertyOp11
 70
     1
102
RTVSPropertyOp12
 70
     1
102
RTVSPropertyOp13
 70
     1
102
RTVSPropertyOp14
 70
     1
102
RTVSPropertyOp15
 70
     1
102
RTVSPropertyOp16
 70
     1
102
RTVSPropertyOp17
 70
     1
102
RTVSPropertyOp18
 70
     1
102
RTVSPropertyOp19
 70
     1
102
RTVSPropertyOp20
 70
     1
102
RTVSPropertyOp21
 70
     1
102
RTVSPropertyOp22
 70
     1
102
RTVSPropertyOp23
 70
     1
102
RTVSPropertyOp24
 70
     1
102
RTVSPropertyOp25
 70
     1
102
RTVSPropertyOp26
 70
     1
102
RTVSPropertyOp27
 70
     1
102
RTVSPropertyOp28
 70
     1
102
RTVSPropertyOp29
 70
     1
102
RTVSPropertyOp30
 70
     1
102
RTVSPropertyOp31
 70
     1
102
RTVSPropertyOp32
 70
     1
  0
ENDSEC
  0
EOF
